<?xml version="1.0" standalone="no"?>
<!DOCTYPE svg PUBLIC "-//W3C//DTD SVG 1.1//EN" "http://www.w3.org/Graphics/SVG/1.1/DTD/svg11.dtd"[]>
<svg xmlns="http://www.w3.org/2000/svg" xmlns:xlink="http://www.w3.org/1999/xlink" version="1.1">
  <metadata>
Created by FontForge 20201107 at Wed Feb 24 11:38:18 2010
 By Unknown
Copyright (c) 2010 Linotype GmbH, www.linotype.com. All rights reserved. This font software may not be reproduced, modified, disclosed or transferred without the express written approval of Linotype GmbH.
</metadata>
  <defs>
    <font id="DINNextLTPro-BlackCondensed">
      <glyph d="M28 670q0 10 10 10h170q10 0 10 -10v-660q0 -10 -10 -10h-170q-10 0 -10 10v660zM254 55q-7 8 1 14l103 107q7 5 14 -2q14 -16 33 -16q28 0 28 34v478q0 10 10 10h170q10 0 10 -10v-459q0 -112 -55 -166.5t-156 -54.5q-50 0 -91.5 18t-66.5 47z" />
      <glyph d="M36 536q-10 0 -10 10v124q0 10 10 10h160q10 0 10 -10v-124q0 -10 -10 -10h-160zM36 0q-10 0 -10 10v470q0 10 10 10h160q10 0 10 -10v-470q0 -10 -10 -10h-160zM268 536q-10 0 -10 10v124q0 10 10 10h160q10 0 10 -10v-124q0 -10 -10 -10h-160zM203 -180q-10 0 -10 10
v132q0 10 10 10l14 1q21 2 31 14t10 44v449q0 10 10 10h160q10 0 10 -10v-436q0 -112 -53.5 -168t-156.5 -56h-25z" />
      <glyph d="M258 0q-10 0 -10 10v308q0 30 -21 30t-21 -30v-308q0 -10 -10 -10h-160q-10 0 -10 10v470q0 10 10 10h158q10 0 10 -10v-36h1q13 25 39 40.5t65 15.5q67 0 93 -36.5t26 -112.5v-341q0 -10 -10 -10h-160zM-64 454q-11 0 -11 11v205q0 10 10 10h107q10 0 10 -10v-100
q0 -16 -10 -26l-94 -85q-5 -5 -12 -5z" />
      <glyph d="M71 0q-10 0 -10 10v344q0 6 -6 6h-33q-10 0 -10 10v110q0 10 10 10h33q6 0 6 6v5q0 98 51.5 138.5t151.5 40.5h44q10 0 10 -10v-126q0 -10 -10 -10h-28q-21 0 -30 -8.5t-9 -24.5v-5q0 -6 6 -6h61q10 0 10 -10v-110q0 -10 -10 -10h-61q-6 0 -6 -6v-344q0 -10 -10 -10h-160
zM407 0q-10 0 -10 10v344q0 6 -6 6h-33q-10 0 -10 10v110q0 10 10 10h33q6 0 6 6v5q0 98 51.5 138.5t151.5 40.5h44q10 0 10 -10v-126q0 -10 -10 -10h-28q-21 0 -30 -8.5t-9 -24.5v-5q0 -6 6 -6h61q10 0 10 -10v-110q0 -10 -10 -10h-61q-6 0 -6 -6v-344q0 -10 -10 -10h-160z
" />
      <glyph d="M71 0q-10 0 -10 10v344q0 6 -6 6h-33q-10 0 -10 10v110q0 10 10 10h33q6 0 6 6v5q0 98 51.5 138.5t151.5 40.5h44q10 0 10 -10v-126q0 -10 -10 -10h-28q-21 0 -30 -8.5t-9 -24.5v-5q0 -6 6 -6h61q10 0 10 -10v-110q0 -10 -10 -10h-61q-6 0 -6 -6v-344q0 -10 -10 -10h-160
zM372 536q-10 0 -10 10v124q0 10 10 10h160q10 0 10 -10v-124q0 -10 -10 -10h-160zM372 0q-10 0 -10 10v470q0 10 10 10h160q10 0 10 -10v-470q0 -10 -10 -10h-160z" />
      <glyph d="M71 0q-10 0 -10 10v344q0 6 -6 6h-33q-10 0 -10 10v110q0 10 10 10h33q6 0 6 6v5q0 98 51.5 138.5t151.5 40.5h44q10 0 10 -10v-126q0 -10 -10 -10h-28q-21 0 -30 -8.5t-9 -24.5v-5q0 -6 6 -6h61q10 0 10 -10v-110q0 -10 -10 -10h-61q-6 0 -6 -6v-344q0 -10 -10 -10h-160
zM554 -6q-49 0 -85 9t-60 31.5t-36 61.5t-12 98v476q0 10 10 10h162q10 0 10 -10v-474q0 -50 38 -50h6q10 0 10 -11v-131q0 -10 -10 -10h-33z" />
      <glyph d="M71 0q-10 0 -10 10v344q0 6 -6 6h-33q-10 0 -10 10v110q0 10 10 10h33q6 0 6 6v5q0 98 51.5 138.5t151.5 40.5h44q10 0 10 -10v-126q0 -10 -10 -10h-28q-21 0 -30 -8.5t-9 -24.5v-5q0 -6 6 -6h61q10 0 10 -10v-110q0 -10 -10 -10h-61q-6 0 -6 -6v-344q0 -10 -10 -10h-160
zM407 0q-10 0 -10 10v344q0 6 -6 6h-33q-10 0 -10 10v110q0 10 10 10h33q6 0 6 6v5q0 98 51.5 138.5t151.5 40.5h44q10 0 10 -10v-126q0 -10 -10 -10h-28q-21 0 -30 -8.5t-9 -24.5v-5q0 -6 6 -6h61q10 0 10 -10v-110q0 -10 -10 -10h-61q-6 0 -6 -6v-344q0 -10 -10 -10h-160z
M708 536q-10 0 -10 10v124q0 10 10 10h160q10 0 10 -10v-124q0 -10 -10 -10h-160zM708 0q-10 0 -10 10v470q0 10 10 10h160q10 0 10 -10v-470q0 -10 -10 -10h-160z" />
      <glyph d="M71 0q-10 0 -10 10v344q0 6 -6 6h-33q-10 0 -10 10v110q0 10 10 10h33q6 0 6 6v5q0 98 51.5 138.5t151.5 40.5h44q10 0 10 -10v-126q0 -10 -10 -10h-28q-21 0 -30 -8.5t-9 -24.5v-5q0 -6 6 -6h61q10 0 10 -10v-110q0 -10 -10 -10h-61q-6 0 -6 -6v-344q0 -10 -10 -10h-160
zM407 0q-10 0 -10 10v344q0 6 -6 6h-33q-10 0 -10 10v110q0 10 10 10h33q6 0 6 6v5q0 98 51.5 138.5t151.5 40.5h44q10 0 10 -10v-126q0 -10 -10 -10h-28q-21 0 -30 -8.5t-9 -24.5v-5q0 -6 6 -6h61q10 0 10 -10v-110q0 -10 -10 -10h-61q-6 0 -6 -6v-344q0 -10 -10 -10h-160z
M890 -6q-49 0 -85 9t-60 31.5t-36 61.5t-12 98v476q0 10 10 10h162q10 0 10 -10v-474q0 -50 38 -50h6q10 0 10 -11v-131q0 -10 -10 -10h-33z" />
      <glyph d="M0 670q0 10 10 10h457q10 0 10 -10v-660q0 -10 -10 -10h-457q-10 0 -10 10v660zM80 80q0 -6 6 -6h305q6 0 6 6v520q0 6 -6 6h-305q-6 0 -6 -6v-520zM190 265q-10 0 -10 10v13q0 17 4.5 30t16.5 29l30 41q13 17 16.5 27.5t3.5 26.5q0 9 -2 15q-3 10 -14 10t-14 -10
q-1 -2 -1.5 -7.5t-0.5 -20.5q0 -11 -11 -9l-93 10q-9 0 -9 11q0 14 1.5 24t5.5 21q11 35 42 56t82 21t82 -21t42 -56q7 -21 7 -44q0 -20 -6.5 -39t-23.5 -43l-31 -41q-9 -12 -12 -19.5t-3 -18.5v-6q0 -10 -10 -10h-92zM186 218q0 10 10 10h86q10 0 10 -10v-94q0 -10 -10 -10
h-86q-10 0 -10 10v94z" />
      <glyph />
      <glyph d="M82 232q-10 0 -10 10l-30 428q0 10 10 10h160q10 0 10 -10l-30 -428q0 -10 -10 -10h-100zM51 166q0 10 10 10h142q10 0 10 -10v-156q0 -10 -10 -10h-142q-10 0 -10 10v156z" />
      <glyph d="M207 440q-10 0 -10 10v220q0 10 10 10h107q10 0 10 -10v-220q0 -10 -10 -10h-107zM42 440q-10 0 -10 10v220q0 10 10 10h107q10 0 10 -10v-220q0 -10 -10 -10h-107z" />
      <glyph d="M78 181h-48q-10 0 -10 10v102q0 10 10 10h60l8 75h-49q-10 0 -10 10v102q0 10 10 10h62l18 170q2 10 11 10h122q11 0 9 -10l-18 -170h47l18 170q2 10 11 10h122q11 0 9 -10l-18 -170h57q10 0 10 -10v-102q0 -10 -10 -10h-70l-8 -75h59q10 0 10 -10v-102q0 -10 -10 -10
h-71l-18 -171q-2 -10 -11 -10h-122q-11 0 -9 10l18 171h-47l-18 -171q-2 -10 -11 -10h-122q-11 0 -9 10zM279 303l8 75h-47l-8 -75h47z" />
      <glyph d="M174 -6q-41 7 -69 23.5t-45 40.5t-25 55t-9 67q0 11 8 12l150 25q11 2 11 -8q2 -45 9.5 -58t22.5 -13t21.5 10t6.5 46q0 15 -2 25.5t-7.5 18.5t-16.5 14.5t-29 13.5l-41 16q-33 13 -57 30t-39.5 40.5t-23 54.5t-7.5 72q0 89 34.5 140.5t107.5 65.5v75q0 10 10 10h97
q10 0 10 -10v-76q68 -13 101 -57t39 -116q0 -10 -8 -11l-150 -23q-11 -2 -11 8q-2 35 -8.5 46t-19.5 11q-12 0 -18 -9t-6 -35q0 -12 2 -21t8 -17t17.5 -15t30.5 -14l41 -16q36 -14 59.5 -31.5t38 -41.5t20.5 -55.5t6 -73.5q0 -189 -142 -217v-77q0 -10 -10 -10h-97
q-10 0 -10 10v75z" />
      <glyph d="M458 680q3 10 14 10h97q10 0 7 -10l-254 -680q-3 -10 -14 -10h-97q-10 0 -7 10zM185 330q-51 0 -82.5 21.5t-43.5 58.5q-2 7 -4 14.5t-3 18.5t-1.5 26.5t-0.5 39.5t0.5 39.5t1.5 26.5t3 18.5t4 14.5q12 37 43.5 58.5t82.5 21.5t82.5 -21.5t43.5 -58.5q2 -7 4 -14.5
t3 -18.5t1.5 -26.5t0.5 -39.5t-0.5 -39.5t-1.5 -26.5t-3 -18.5t-4 -14.5q-12 -37 -43.5 -58.5t-82.5 -21.5zM185 422q13 0 16 10q1 2 1.5 5t0.5 10.5v22v39.5v39.5v22t-0.5 10.5t-1.5 5q-3 10 -16 10t-16 -10q-1 -2 -1.5 -5t-0.5 -10.5v-22v-39.5v-39.5v-22t0.5 -10.5
t1.5 -5q3 -10 16 -10zM468 72q-2 7 -4 14.5t-3 18.5t-1.5 26.5t-0.5 39.5t0.5 39.5t1.5 26.5t3 18.5t4 14.5q12 37 43.5 58.5t82.5 21.5t82.5 -21.5t43.5 -58.5q2 -7 4 -14.5t3 -18.5t1.5 -26.5t0.5 -39.5t-0.5 -39.5t-1.5 -26.5t-3 -18.5t-4 -14.5q-12 -37 -43.5 -58.5
t-82.5 -21.5t-82.5 21.5t-43.5 58.5zM578 94q3 -10 16 -10t16 10q1 2 1.5 5t0.5 10.5v22v39.5v39.5v22t-0.5 10.5t-1.5 5q-3 10 -16 10t-16 -10q-1 -2 -1.5 -5t-0.5 -10.5v-22v-39.5v-39.5v-22t0.5 -10.5t1.5 -5z" />
      <glyph d="M34 160q0 52 21.5 98t75.5 99q-31 44 -50 82t-19 83q0 38 13.5 69t37.5 53t58 34t76 12q83 0 133 -45.5t50 -122.5q0 -47 -25.5 -91t-73.5 -90l38 -54l36 46q7 9 15 2l97 -75q7 -6 1 -14l-63 -81l7 -9q8 -11 17.5 -14t22.5 -3h8q10 0 10 -10v-119q0 -10 -10 -10h-56
q-33 0 -55.5 8t-43.5 34q-32 -29 -67 -40.5t-81 -11.5q-36 0 -67.5 11.5t-55 33.5t-37 53.5t-13.5 71.5zM246 465q17 18 22 34t5 33q0 14 -7.5 23.5t-19.5 9.5q-14 0 -20.5 -9.5t-6.5 -23.5q0 -24 27 -67zM200 180q0 -18 9 -27.5t23 -9.5q9 0 17.5 3.5t20.5 14.5l-51 72
q-11 -15 -15 -27.5t-4 -25.5z" />
      <glyph d="M42 440q-10 0 -10 10v220q0 10 10 10h107q10 0 10 -10v-220q0 -10 -10 -10h-107z" />
      <glyph d="M128 -74q-44 91 -63.5 195t-19.5 207t19.5 207t63.5 195q5 10 13 10h112q10 0 7 -10q-26 -91 -40 -195t-14 -207t14 -207t40 -195q3 -10 -7 -10h-112q-8 0 -13 10z" />
      <glyph d="M26 -74q26 91 40 195t14 207t-14 207t-40 195q-3 10 7 10h112q8 0 13 -10q44 -91 63.5 -195t19.5 -207t-19.5 -207t-63.5 -195q-5 -10 -13 -10h-112q-10 0 -7 10z" />
      <glyph d="M156 332q-10 0 -10 10l1 81l-57 -34q-9 -6 -13 4l-39 67q-5 9 3 14l58 32l-58 32q-8 5 -3 14l39 67q5 9 13 4l57 -35l-1 82q0 10 10 10h78q10 0 10 -10l-2 -82l58 35q9 6 13 -4l39 -67q5 -9 -3 -14l-58 -32l58 -32q8 -5 3 -14l-39 -67q-5 -9 -13 -4l-58 34l2 -81
q0 -10 -10 -10h-78z" />
      <glyph d="M160 202q0 6 -6 6h-120q-10 0 -10 10v116q0 10 10 10h120q6 0 6 6v124q0 10 10 10h120q10 0 10 -10v-124q0 -6 6 -6h120q10 0 10 -10v-116q0 -10 -10 -10h-120q-6 0 -6 -6v-124q0 -10 -10 -10h-120q-10 0 -10 10v124z" />
      <glyph d="M36 166q0 10 10 10h132q10 0 10 -10v-130q0 -16 -10 -26l-119 -107q-5 -5 -12 -5q-11 0 -11 11v257z" />
      <glyph d="M40 185q-10 0 -10 10v140q0 10 10 10h268q10 0 10 -10v-140q0 -10 -10 -10h-268z" />
      <glyph d="M36 166q0 10 10 10h142q10 0 10 -10v-156q0 -10 -10 -10h-142q-10 0 -10 10v156z" />
      <glyph d="M137 680q2 10 13 10h137q10 0 8 -10l-124 -680q-2 -10 -13 -10h-137q-10 0 -8 10z" />
      <glyph d="M40 114q-4 12 -7 27t-5 40t-3 63.5t-1 95.5t1 95.5t3 63.5t5 40t7 27q20 60 67.5 92t122.5 32t122.5 -32t67.5 -92q4 -12 7 -27t5 -40t3 -63.5t1 -95.5t-1 -95.5t-3 -63.5t-5 -40t-7 -27q-20 -60 -67.5 -92t-122.5 -32t-122.5 32t-67.5 92zM209 153q4 -15 21 -15
q16 0 21 15q1 2 1.5 7.5t1 24t0.5 54.5v101v100.5t-0.5 55t-1 24t-1.5 7.5q-5 15 -21 15q-17 0 -21 -15q-1 -2 -1.5 -7.5t-1 -24t-0.5 -55v-100.5v-101t0.5 -54.5t1 -24t1.5 -7.5z" />
      <glyph d="M165 483h-2l-84 -59q-4 -3 -7.5 -1.5t-3.5 8.5v163q0 8 7 14l89 66q7 6 14 6h157q10 0 10 -10v-660q0 -10 -10 -10h-160q-10 0 -10 10v473z" />
      <glyph d="M28 139q0 9 4 16l175 218q13 16 21.5 29t13 25.5t6.5 27.5t2 36q0 18 -0.5 25t-2.5 12q-5 14 -21 14t-21 -14q-2 -5 -2.5 -13.5t-0.5 -34.5q0 -12 -12 -10l-152 15q-10 1 -10 12q0 46 10 76q18 55 65.5 86t125.5 31t125.5 -31t65.5 -86q5 -16 7.5 -35t2.5 -47
q0 -57 -13.5 -98.5t-49.5 -84.5l-126 -150v-2h179q10 0 10 -10v-136q0 -10 -10 -10h-382q-10 0 -10 10v129z" />
      <glyph d="M38 107q-5 16 -7.5 32.5t-2.5 33.5q0 11 10 12l152 15q12 2 12 -10q0 -19 0.5 -26t2.5 -12q5 -14 21 -14t21 14q2 5 2.5 13.5t0.5 37.5q0 23 -0.5 33t-2.5 15q-5 17 -34 17h-16q-10 0 -10 10v139q0 10 10 10h21q24 0 29 15q2 4 2.5 12.5t0.5 36.5q0 18 -0.5 25t-2.5 12
q-5 14 -21 14t-21 -14q-2 -5 -2.5 -12t-0.5 -26q0 -12 -12 -10l-152 15q-10 1 -10 12q0 16 2.5 33t7.5 33q18 55 65.5 86t125.5 31t125.5 -31t65.5 -86q5 -16 7.5 -35t2.5 -47q0 -17 -2 -32.5t-7 -31.5q-15 -47 -60 -71v-2q23 -12 38 -28.5t23 -42.5q5 -14 6.5 -31.5
t1.5 -52.5t-2.5 -55.5t-7.5 -36.5q-18 -55 -65.5 -86t-125.5 -31t-125.5 31t-65.5 86z" />
      <glyph d="M23 107q-10 0 -10 10v151q0 5 2 11l123 393q3 8 10 8h157q10 0 7 -10l-121 -405v-2h47q6 0 6 6v81q0 10 10 10h146q10 0 10 -10v-81q0 -6 5 -6h21q10 0 10 -10v-136q0 -10 -10 -10h-20q-6 0 -6 -6v-91q0 -10 -10 -10h-146q-10 0 -10 10v91q0 6 -6 6h-215z" />
      <glyph d="M38 107q-5 16 -7.5 33t-2.5 32q0 11 10 12l152 15q12 2 12 -10q0 -18 0.5 -25t2.5 -12q5 -14 21 -14t21 14q1 2 1.5 5.5t1 11t0.5 20.5v36v35.5t-0.5 21t-1 11t-1.5 5.5q-5 14 -22 14q-21 0 -25 -21q-2 -10 -12 -10h-143q-9 0 -9 10v379q0 10 10 10h370q10 0 10 -10v-136
q0 -10 -10 -10h-216q-6 0 -6 -6v-86h2q11 8 29.5 15t50.5 7q54 0 89.5 -22t51.5 -71q3 -10 5.5 -21.5t4 -27t2.5 -37t1 -50.5q0 -27 -0.5 -46t-2 -32.5t-3 -22.5t-4.5 -17q-18 -55 -65.5 -86t-125.5 -31t-125.5 31t-65.5 86z" />
      <glyph d="M37 108q-5 16 -8 37t-3 58q0 33 2.5 59.5t8 49t13.5 43t19 41.5l139 275q4 9 16 9h160q5 0 7 -4t0 -9l-124 -255l2 -2q8 2 20 2q50 0 83.5 -27.5t49.5 -75.5q6 -18 9 -41t3 -65q0 -37 -3 -58t-8 -37q-19 -58 -68 -88t-125 -30t-125 30t-68 88zM209 152q5 -14 21 -14
t21 14q2 5 2.5 14t0.5 37t-0.5 37t-2.5 14q-5 14 -21 14t-21 -14q-2 -5 -2.5 -14t-0.5 -37t0.5 -37t2.5 -14z" />
      <glyph d="M254 527v2h-68q-6 0 -6 -6v-42q0 -10 -10 -10h-130q-10 0 -10 10v189q0 10 10 10h385q10 0 10 -10v-124q0 -5 -0.5 -7.5t-1.5 -5.5l-162 -523q-3 -10 -13 -10h-161q-11 0 -8 11z" />
      <glyph d="M37 108q-5 16 -8 36.5t-3 53.5q0 32 2.5 51t8.5 37q9 28 24.5 44t29.5 24v2q-17 10 -32 28t-24 46t-9 66q0 43 11 76q19 58 68 88t125 30t125 -30t68 -88q11 -33 11 -76q0 -38 -9 -66t-24 -46t-32 -28v-2q14 -8 29.5 -24t24.5 -44q6 -18 8.5 -37t2.5 -51q0 -33 -3 -53.5
t-8 -36.5q-19 -58 -68 -88t-125 -30t-125 30t-68 88zM230 418q16 0 21 14q2 5 2.5 13.5t0.5 34.5t-0.5 34.5t-2.5 13.5q-5 14 -21 14t-21 -14q-2 -5 -2.5 -13.5t-0.5 -34.5t0.5 -34.5t2.5 -13.5q5 -14 21 -14zM209 152q5 -14 21 -14t21 14q2 5 2.5 14t0.5 38t-0.5 38
t-2.5 14q-5 14 -21 14t-21 -14q-2 -5 -2.5 -14t-0.5 -38t0.5 -38t2.5 -14z" />
      <glyph d="M193 268l-2 2q-8 -2 -20 -2q-50 0 -83.5 27.5t-49.5 75.5q-6 18 -9 41t-3 65q0 37 3 58t8 37q19 58 68 88t125 30t125 -30t68 -88q5 -16 8 -37t3 -58q0 -33 -2.5 -59.5t-8 -49t-13.5 -43t-19 -41.5l-139 -275q-5 -9 -16 -9h-160q-5 0 -7 4t0 9zM230 412q16 0 21 14
q2 5 2.5 14t0.5 37t-0.5 37t-2.5 14q-5 14 -21 14t-21 -14q-2 -5 -2.5 -14t-0.5 -37t0.5 -37t2.5 -14q5 -14 21 -14z" />
      <glyph d="M48 314q-10 0 -10 10v156q0 10 10 10h142q10 0 10 -10v-156q0 -10 -10 -10h-142zM38 166q0 10 10 10h142q10 0 10 -10v-156q0 -10 -10 -10h-142q-10 0 -10 10v156z" />
      <glyph d="M48 314q-10 0 -10 10v156q0 10 10 10h142q10 0 10 -10v-156q0 -10 -10 -10h-142zM41 166q0 10 10 10h132q10 0 10 -10v-120q0 -16 -10 -26l-119 -107q-5 -5 -12 -5q-11 0 -11 11v247z" />
      <glyph d="M34 210q-10 3 -10 14v104q0 11 10 14l392 154q10 3 10 -7v-128q0 -9 -10 -13l-192 -71v-2l192 -71q10 -4 10 -13v-128q0 -10 -10 -7z" />
      <glyph d="M34 300q-10 0 -10 10v116q0 10 10 10h392q10 0 10 -10v-116q0 -10 -10 -10h-392zM34 116q-10 0 -10 10v116q0 10 10 10h392q10 0 10 -10v-116q0 -10 -10 -10h-392z" />
      <glyph d="M34 56q-10 -3 -10 7v128q0 9 10 13l192 71v2l-192 71q-10 4 -10 13v128q0 10 10 7l392 -154q10 -3 10 -14v-104q0 -11 -10 -14z" />
      <glyph d="M134 232q-10 0 -10 10v25q0 27 7 48t24 44l47 63q20 26 25 42t5 39q0 16 -3 25q-5 14 -21 14t-21 -14q-2 -5 -2.5 -13t-0.5 -34q0 -12 -12 -10l-152 15q-10 1 -10 12q0 23 2.5 40t7.5 33q18 57 65.5 88t125.5 31t125.5 -31t65.5 -88q10 -30 10 -68q0 -26 -9.5 -56.5
t-36.5 -67.5l-47 -63q-14 -19 -18.5 -31t-4.5 -28v-15q0 -10 -10 -10h-152zM133 166q0 10 10 10h142q10 0 10 -10v-156q0 -10 -10 -10h-142q-10 0 -10 10v156z" />
      <glyph d="M51 69q-5 16 -9 34t-6.5 41.5t-4 54.5t-1.5 72t1.5 71.5t4 53.5t6.5 41t9 34q17 52 48.5 93t74.5 69t96 42.5t113 14.5t113 -14.5t96 -42.5t74.5 -69t48.5 -93q5 -16 9 -34t6.5 -41t4 -53.5t1.5 -71.5q0 -29 -1 -48t-2.5 -32.5t-3.5 -22t-4 -15.5q-17 -53 -60 -77
t-95 -24q-51 0 -85.5 19.5t-51.5 51.5h-1q-23 -71 -106 -71q-35 0 -60.5 14.5t-37.5 50.5q-3 10 -6 22.5t-4.5 30t-2.5 41t-1 55.5t1 55.5t2.5 41t4 30t5.5 23.5q12 36 35 50t58 14q32 0 50 -11.5t32 -37.5h2v31q0 10 10 10h128q10 0 10 -10v-264q0 -22 20 -22q15 0 18 12
q0 1 0.5 3.5t1 11t0.5 24.5v44q0 38 -1 64t-2.5 44.5t-4.5 30.5t-6 23q-20 62 -70 93.5t-125 31.5t-125 -31.5t-70 -93.5q-3 -11 -6 -23t-4.5 -30.5t-2.5 -44.5t-1 -64t1 -64.5t2.5 -45t4.5 -31.5t6 -23q20 -62 70 -93.5t125 -31.5q45 0 80 9.5t67 30.5q9 6 14 -2l62 -85
q7 -9 -2 -14q-43 -31 -99.5 -51t-121.5 -20q-60 0 -113 14.5t-96 42.5t-74.5 69t-48.5 93zM365 189q4 -13 18 -13t18 13q1 2 1.5 5t1 11t0.5 22v39v39t-0.5 22t-1 11t-1.5 5q-4 13 -18 13t-18 -13q-1 -2 -1.5 -5t-1 -11t-0.5 -22v-39v-39t0.5 -22t1 -11t1.5 -5z" />
      <glyph d="M155 670q2 10 12 10h198q10 0 12 -10l148 -660q2 -10 -8 -10h-170q-10 0 -12 10l-14 90h-111l-15 -90q-2 -10 -12 -10h-170q-10 0 -8 10zM300 234l-32 206h-2l-34 -206h68z" />
      <glyph d="M28 670q0 10 10 10h226q105 0 152 -45t47 -133q0 -62 -20 -96.5t-58 -51.5v-2q18 -6 34 -17.5t27.5 -29.5t18 -44.5t6.5 -63.5q0 -107 -53.5 -152t-153.5 -45h-226q-10 0 -10 10v660zM235 413q24 0 33 14t9 49t-9 48.5t-33 13.5h-11q-6 0 -6 -6v-113q0 -6 6 -6h11z
M218 148q0 -6 6 -6h11q26 0 36.5 14t10.5 56t-10.5 55.5t-36.5 13.5h-11q-6 0 -6 -6v-127z" />
      <glyph d="M40 124q-4 12 -7 27t-5 39t-3 60t-1 90t1 90t3 60t5 39t7 27q23 69 73 101.5t131 32.5q52 0 91.5 -14.5t66 -40t41 -61t16.5 -77.5q0 -11 -8 -12l-165 -26q-11 -2 -11 9q-1 30 -8 42t-21 12q-18 0 -23 -16q-2 -5 -2.5 -11t-1.5 -22.5t-1 -47.5v-85v-85t1 -47.5t1.5 -22.5
t2.5 -11q5 -16 23 -16q14 0 21 12t8 42q0 11 11 9l165 -26q8 -1 8 -12q-2 -42 -16.5 -77.5t-41 -61t-66 -40t-91.5 -14.5q-81 0 -131 32.5t-73 101.5z" />
      <glyph d="M28 670q0 10 10 10h208q79 0 130 -28.5t72 -93.5q4 -14 8 -31.5t6.5 -42.5t4 -60t1.5 -84t-1.5 -84t-4 -60t-6.5 -42.5t-8 -31.5q-21 -65 -72 -93.5t-130 -28.5h-208q-10 0 -10 10v660zM218 174q0 -6 6 -6h4q31 0 39 23q2 5 3.5 13t2 23.5t1 42.5t0.5 70t-0.5 70t-1 42.5
t-2 23.5t-3.5 13q-8 23 -39 23h-4q-6 0 -6 -6v-332z" />
      <glyph d="M28 670q0 10 10 10h341q10 0 10 -10v-148q0 -10 -10 -10h-155q-6 0 -6 -6v-73q0 -6 6 -6h132q10 0 10 -10v-148q0 -10 -10 -10h-132q-6 0 -6 -6v-79q0 -6 6 -6h155q10 0 10 -10v-148q0 -10 -10 -10h-341q-10 0 -10 10v660z" />
      <glyph d="M28 670q0 10 10 10h341q10 0 10 -10v-148q0 -10 -10 -10h-155q-6 0 -6 -6v-83q0 -6 6 -6h132q10 0 10 -10v-148q0 -10 -10 -10h-132q-6 0 -6 -6v-233q0 -10 -10 -10h-170q-10 0 -10 10v660z" />
      <glyph d="M40 124q-5 13 -8 29t-4.5 40t-2.5 59t-1 88t1 88t2.5 59t4.5 39.5t8 29.5q23 69 75 101.5t134 32.5q52 0 91.5 -14.5t66.5 -40t41.5 -61t16.5 -77.5q0 -11 -8 -12l-165 -26q-11 -2 -11 9q-1 29 -8 41.5t-24 12.5q-21 0 -27 -18q-1 -3 -2 -9t-1.5 -22.5t-0.5 -47.5v-85
v-83.5t0.5 -47t1.5 -22.5t2 -9q7 -20 31 -20t31 20q2 7 3 18.5t1 36.5q0 6 -6 6h-18q-10 0 -10 10v118q0 10 10 10h194q10 0 10 -10v-27q0 -53 -1 -88t-2.5 -58.5t-5 -39t-7.5 -28.5q-23 -70 -74.5 -103t-128.5 -33q-82 0 -134 32.5t-75 101.5z" />
      <glyph d="M28 670q0 10 10 10h170q10 0 10 -10v-232q0 -6 6 -6h50q6 0 6 6v232q0 10 10 10h170q10 0 10 -10v-660q0 -10 -10 -10h-170q-10 0 -10 10v248q0 6 -6 6h-50q-6 0 -6 -6v-248q0 -10 -10 -10h-170q-10 0 -10 10v660z" />
      <glyph d="M28 670q0 10 10 10h170q10 0 10 -10v-660q0 -10 -10 -10h-170q-10 0 -10 10v660z" />
      <glyph d="M8 55q-7 8 1 14l103 107q7 5 14 -2q14 -16 33 -16q28 0 28 34v478q0 10 10 10h170q10 0 10 -10v-459q0 -112 -55 -166.5t-156 -54.5q-50 0 -91.5 18t-66.5 47z" />
      <glyph d="M28 670q0 10 10 10h170q10 0 10 -10v-214l94 215q4 9 14 9h170q4 0 5.5 -3t-0.5 -7l-133 -260l139 -400q4 -10 -6 -10h-177q-8 0 -11 7l-70 235l-25 -58v-174q0 -10 -10 -10h-170q-10 0 -10 10v660z" />
      <glyph d="M28 670q0 10 10 10h170q10 0 10 -10v-496q0 -6 6 -6h157q10 0 10 -10v-148q0 -10 -10 -10h-343q-10 0 -10 10v660z" />
      <glyph d="M28 670q0 10 10 10h159q12 0 15 -10l81 -299h4l78 299q3 10 15 10h158q10 0 10 -10v-660q0 -10 -10 -10h-144q-10 0 -10 10v305h-5l-44 -184q-3 -10 -11 -10h-82q-8 0 -11 10l-44 184h-5v-305q0 -10 -10 -10h-144q-10 0 -10 10v660z" />
      <glyph d="M28 670q0 10 10 10h166q12 0 15 -10l92 -325h5v325q0 10 10 10h144q10 0 10 -10v-660q0 -10 -10 -10h-166q-12 0 -15 10l-92 325h-5v-325q0 -10 -10 -10h-144q-10 0 -10 10v660z" />
      <glyph d="M248 -10q-78 0 -131 33t-76 103q-5 13 -8 28.5t-5 39t-3 58.5t-1 88t1 88t3 58.5t5 38.5t8 29q23 70 76 103t131 33t131 -33t76 -103q4 -14 7.5 -29t5.5 -38.5t3 -58.5t1 -88t-1 -88t-3 -58.5t-5.5 -39t-7.5 -28.5q-23 -70 -76 -103t-131 -33zM248 158q20 0 26 18
q1 3 2 9t1.5 22.5t0.5 47.5v85v85t-0.5 47.5t-1.5 22.5t-2 9q-6 18 -26 18t-26 -18q-1 -3 -2 -9t-1.5 -22.5t-0.5 -47.5v-85v-85t0.5 -47.5t1.5 -22.5t2 -9q6 -18 26 -18z" />
      <glyph d="M38 0q-10 0 -10 10v660q0 10 10 10h216q49 0 89 -14t68.5 -41.5t44 -70t15.5 -99.5q0 -59 -17 -101.5t-46.5 -70t-69 -40.5t-84.5 -13h-30q-6 0 -6 -6v-214q0 -10 -10 -10h-170zM239 386q22 0 32 13.5t10 55.5t-10 55.5t-32 13.5h-15q-6 0 -6 -6v-126q0 -6 6 -6h15z" />
      <glyph d="M384 -71q-9 -6 -15 3l-44 68q-33 -10 -76 -10q-78 0 -131 33t-76 103q-5 13 -8 28.5t-5 39t-3 58.5t-1 88t1 88t3 58.5t5 38.5t8 29q23 70 76 103t131 33t131 -33t76 -103q4 -14 7.5 -29t5.5 -38.5t3 -58.5t1 -88t-1 -88t-3 -58.5t-5.5 -39t-7.5 -28.5l-4 -10l60 -90
q2 -4 1.5 -8.5t-4.5 -6.5zM249 158q20 0 26 18q1 3 2 9t1.5 22.5t0.5 47.5v85v85t-0.5 47.5t-1.5 22.5t-2 9q-6 18 -26 18t-26 -18q-1 -3 -2 -9t-1.5 -22.5t-0.5 -47.5v-85v-85t0.5 -47.5t1.5 -22.5t2 -9q6 -18 26 -18z" />
      <glyph d="M304 0q-10 0 -13 10l-60 230h-7q-6 0 -6 -6v-224q0 -10 -10 -10h-170q-10 0 -10 10v660q0 10 10 10h222q46 0 85 -13t67 -40t43.5 -69t15.5 -100q0 -60 -18 -102t-49 -68l85 -278q4 -10 -5 -10h-180zM239 392q22 0 32 14t10 52t-10 52t-32 14h-15q-6 0 -6 -6v-120
q0 -6 6 -6h15z" />
      <glyph d="M452 217q0 -227 -220 -227q-59 0 -100.5 14.5t-67.5 40.5t-38.5 61.5t-12.5 76.5q0 10 9 12l160 25q10 2 10 -8q0 -60 35 -60q17 0 25 9.5t8 33.5q0 23 -11 34.5t-46 25.5l-41 16q-37 14 -64 32.5t-45 43.5t-26.5 57.5t-8.5 76.5q0 103 52.5 156t159.5 53
q103 0 157 -48.5t56 -129.5q0 -10 -8 -11l-154 -23q-11 -2 -11 8q-1 23 -10 32.5t-23 9.5q-28 0 -28 -33q0 -18 12 -28.5t50 -25.5l41 -16q38 -15 64.5 -33.5t43.5 -43t24.5 -57t7.5 -74.5z" />
      <glyph d="M155 0q-10 0 -10 10v496q0 6 -6 6h-119q-10 0 -10 10v148q0 10 10 10h440q10 0 10 -10v-148q0 -10 -10 -10h-119q-6 0 -6 -6v-496q0 -10 -10 -10h-170z" />
      <glyph d="M245 -10q-100 0 -159.5 55.5t-59.5 165.5v459q0 10 10 10h170q10 0 10 -10v-479q0 -33 29 -33t29 33v479q0 10 10 10h170q10 0 10 -10v-459q0 -110 -59.5 -165.5t-159.5 -55.5z" />
      <glyph d="M157 0q-9 0 -12 10l-138 660q-3 10 8 10h177q9 0 12 -10l46 -364h3l43 364q3 10 12 10h175q11 0 8 -10l-139 -660q-3 -10 -12 -10h-183z" />
      <glyph d="M404 0q-9 0 -12 10l-41 329h-2l-41 -329q-3 -10 -12 -10h-154q-9 0 -12 10l-123 660q-3 10 8 10h176q9 0 12 -10l39 -370h2l38 370q3 10 12 10h113q9 0 12 -10l41 -370h2l35 370q3 10 12 10h176q11 0 8 -10l-123 -660q-3 -10 -12 -10h-154z" />
      <glyph d="M295 0q-9 0 -12 10l-41 142h-1l-42 -142q-3 -10 -12 -10h-171q-11 0 -8 10l133 340l-125 320q-3 10 8 10h173q9 0 12 -10l33 -137h1l35 137q3 10 12 10h170q11 0 8 -10l-124 -320l132 -340q3 -10 -8 -10h-173z" />
      <glyph d="M152 0q-10 0 -10 10v237l-137 423q-3 10 8 10h167q10 0 12 -10l45 -218h4l43 218q2 10 12 10h165q11 0 8 -10l-137 -423v-237q0 -10 -10 -10h-170z" />
      <glyph d="M31 0q-10 0 -10 10v142q0 6 3 12l172 346v2h-156q-10 0 -10 10v148q0 10 10 10h347q10 0 10 -10v-143q0 -6 -3 -12l-176 -345v-2h169q10 0 10 -10v-148q0 -10 -10 -10h-356z" />
      <glyph d="M58 -84q-10 0 -10 10v804q0 10 10 10h200q10 0 10 -10v-108q0 -10 -10 -10h-52q-6 0 -6 -6v-556q0 -6 6 -6h52q10 0 10 -10v-108q0 -10 -10 -10h-200z" />
      <glyph d="M150 -10q-11 0 -13 10l-124 680q-2 10 8 10h137q11 0 13 -10l124 -680q2 -10 -8 -10h-137z" />
      <glyph d="M38 -84q-10 0 -10 10v108q0 10 10 10h52q6 0 6 6v556q0 6 -6 6h-52q-10 0 -10 10v108q0 10 10 10h200q10 0 10 -10v-804q0 -10 -10 -10h-200z" />
      <glyph d="M300 256q-9 0 -13 10l-50 188h-2l-50 -188q-4 -10 -13 -10h-140q-10 0 -7 10l135 404q3 10 14 10h124q11 0 14 -10l135 -404q3 -10 -7 -10h-140z" />
      <glyph d="M0 -178v118h482v-118h-482z" />
      <glyph d="M216 540q-11 0 -18 10l-100 144q-3 4 -1.5 7t6.5 3h144q10 0 16 -10l78 -144q5 -10 -6 -10h-119z" />
      <glyph d="M235 0q-10 0 -10 10v24h-1q-11 -21 -36 -32.5t-57 -11.5q-24 0 -45.5 8t-37 25.5t-25 46t-9.5 69.5q0 47 15 77.5t38.5 48t53 24.5t58.5 7h40q6 0 6 6v18q0 18 -11.5 27t-43.5 9q-26 0 -46.5 -7t-34.5 -16q-12 -8 -15 2l-45 113q-4 11 5 16q30 17 71.5 26.5t92.5 9.5
q57 0 94.5 -11.5t60 -34.5t32 -56.5t9.5 -77.5v-310q0 -10 -10 -10h-149zM197 117q28 0 28 38v32q0 6 -6 6h-14q-35 0 -35 -40q0 -36 27 -36z" />
      <glyph d="M307 -10q-71 0 -102 58h-1v-38q0 -10 -10 -10h-158q-10 0 -10 10v660q0 10 10 10h160q10 0 10 -10v-228h1q31 58 100 58q45 0 70 -17t39 -58q4 -12 7 -27t5 -36t3 -49.5t1 -67.5t-1 -67.5t-3 -49.5t-5 -36t-7 -27q-14 -41 -39 -58t-70 -17zM229 138q15 0 20 14
q1 3 1.5 6.5t1 13t0.5 27v46.5v46.5t-0.5 27t-1 13t-1.5 6.5q-5 14 -20 14t-20 -14q-1 -3 -1.5 -6.5t-1 -13t-0.5 -27v-46.5v-46.5t0.5 -27t1 -13t1.5 -6.5q5 -14 20 -14z" />
      <glyph d="M210 -10q-68 0 -114 28t-66 89q-8 23 -11 54.5t-3 83.5t3 83.5t11 54.5q20 61 66 89t114 28q81 0 132 -40t57 -116q0 -9 -8 -12l-140 -24q-5 -1 -8.5 1t-3.5 8q0 20 -5.5 27.5t-15.5 7.5q-15 0 -19 -13q-1 -2 -1.5 -6t-1 -13.5t-0.5 -27v-47.5v-47.5t0.5 -27.5t1 -13.5
t1.5 -5.5q4 -13 19 -13q10 0 15.5 7.5t5.5 27.5q0 6 3.5 8t8.5 1l140 -24q8 -3 8 -12q-6 -76 -57 -116t-132 -40z" />
      <glyph d="M258 0q-10 0 -10 10v38h-1q-31 -58 -102 -58q-45 0 -70 17t-39 58q-4 12 -7 27t-5 36t-3 49.5t-1 67.5t1 67.5t3 49.5t5 36t7 27q14 41 39 58t70 17q69 0 100 -58h1v228q0 10 10 10h160q10 0 10 -10v-660q0 -10 -10 -10h-158zM223 138q15 0 20 14q1 3 1.5 6.5t1 13
t0.5 27v46.5v46.5t-0.5 27t-1 13t-1.5 6.5q-5 14 -20 14t-20 -14q-1 -3 -1.5 -6.5t-1 -13t-0.5 -27v-46.5v-46.5t0.5 -27t1 -13t1.5 -6.5q5 -14 20 -14z" />
      <glyph d="M212 -10q-73 0 -118 30.5t-63 86.5q-4 12 -6.5 24t-4.5 28t-3 36.5t-1 49.5q0 28 1 49t3 37t4.5 28t6.5 24q18 56 63 86.5t118 30.5t118 -30.5t63 -86.5q4 -12 6.5 -24t4.5 -31.5t3 -49t1 -75.5q0 -10 -10 -10h-198q-6 0 -6 -6q0 -22 0.5 -28.5t2.5 -11.5q2 -8 8 -11
t13 -3q19 0 28 24q3 9 12 8l137 -28q9 -1 7 -12q-14 -69 -65 -102t-125 -33zM236 296q6 0 6 6q0 29 -0.5 38.5t-2.5 14.5q-5 15 -21 15q-17 0 -21 -15q-2 -5 -2.5 -14.5t-0.5 -38.5q0 -6 6 -6h36z" />
      <glyph d="M71 0q-10 0 -10 10v344q0 6 -6 6h-33q-10 0 -10 10v110q0 10 10 10h33q6 0 6 6v5q0 98 51.5 138.5t151.5 40.5h44q10 0 10 -10v-126q0 -10 -10 -10h-28q-21 0 -30 -8.5t-9 -24.5v-5q0 -6 6 -6h61q10 0 10 -10v-110q0 -10 -10 -10h-61q-6 0 -6 -6v-344q0 -10 -10 -10h-160
z" />
      <glyph d="M223 -190q-42 0 -76 11t-58 30t-37.5 45.5t-14.5 58.5q0 10 7 11l145 25q8 1 10 -8q3 -27 24 -27q13 0 18 7.5t5 27.5v89h-1q-31 -58 -100 -58q-45 0 -70 17t-39 58q-8 25 -12 61.5t-4 102.5t4 102.5t12 61.5q14 41 39 58t70 17q71 0 102 -58h1v38q0 10 10 10h158
q10 0 10 -10v-467q0 -106 -53 -154.5t-150 -48.5zM223 170q15 0 20 14q1 2 1.5 5.5t1 11.5t0.5 22v38v38t-0.5 22t-1 11.5t-1.5 5.5q-5 14 -20 14t-20 -14q-1 -2 -1.5 -5.5t-1 -11.5t-0.5 -22v-38v-38t0.5 -22t1 -11.5t1.5 -5.5q5 -14 20 -14z" />
      <glyph d="M258 0q-10 0 -10 10v308q0 30 -21 30t-21 -30v-308q0 -10 -10 -10h-160q-10 0 -10 10v660q0 10 10 10h160q10 0 10 -10v-226h1q13 25 38 40.5t64 15.5q67 0 93 -36.5t26 -112.5v-341q0 -10 -10 -10h-160z" />
      <glyph d="M36 536q-10 0 -10 10v124q0 10 10 10h160q10 0 10 -10v-124q0 -10 -10 -10h-160zM36 0q-10 0 -10 10v470q0 10 10 10h160q10 0 10 -10v-470q0 -10 -10 -10h-160z" />
      <glyph d="M36 536q-10 0 -10 10v124q0 10 10 10h160q10 0 10 -10v-124q0 -10 -10 -10h-160zM-29 -180q-10 0 -10 10v132q0 10 10 10l14 1q21 2 31 14t10 44v449q0 10 10 10h160q10 0 10 -10v-436q0 -112 -53.5 -168t-156.5 -56h-25z" />
      <glyph d="M285 0q-12 0 -15 12l-47 169l-17 -32v-139q0 -10 -10 -10h-160q-10 0 -10 10v660q0 10 10 10h160q10 0 10 -10v-313l66 125q4 8 14 8h165q5 0 6 -3t-1 -6l-107 -159l108 -313q1 -3 -0.5 -6t-6.5 -3h-165z" />
      <glyph d="M218 -6q-49 0 -85 9t-60 31.5t-36 61.5t-12 98v476q0 10 10 10h162q10 0 10 -10v-474q0 -50 38 -50h6q10 0 10 -11v-131q0 -10 -10 -10h-33z" />
      <glyph d="M480 0q-10 0 -10 10v308q0 30 -21 30t-21 -30v-308q0 -10 -10 -10h-160q-10 0 -10 10v308q0 30 -21 30t-21 -30v-308q0 -10 -10 -10h-160q-10 0 -10 10v470q0 10 10 10h158q10 0 10 -10v-36h1q13 25 39 40.5t65 15.5q77 0 103 -54h1q12 21 39 37.5t69 16.5q67 0 98 -36.5
t31 -112.5v-341q0 -10 -10 -10h-160z" />
      <glyph d="M258 0q-10 0 -10 10v308q0 30 -21 30t-21 -30v-308q0 -10 -10 -10h-160q-10 0 -10 10v470q0 10 10 10h158q10 0 10 -10v-36h1q13 25 39 40.5t65 15.5q67 0 93 -36.5t26 -112.5v-341q0 -10 -10 -10h-160z" />
      <glyph d="M219 -10q-148 0 -188 122q-8 23 -11.5 51t-3.5 82t3.5 82t11.5 51q40 122 188 122t188 -122q8 -23 11.5 -51t3.5 -82t-3.5 -82t-11.5 -51q-40 -122 -188 -122zM219 138q16 0 20 14q1 2 1.5 5.5t1 13.5t0.5 27.5v46.5v46.5t-0.5 27.5t-1 13.5t-1.5 5.5q-4 14 -20 14
t-20 -14q-1 -2 -1.5 -5.5t-1 -13.5t-0.5 -27.5v-46.5v-46.5t0.5 -27.5t1 -13.5t1.5 -5.5q4 -14 20 -14z" />
      <glyph d="M36 -180q-10 0 -10 10v650q0 10 10 10h158q10 0 10 -10v-38h1q31 58 102 58q45 0 70 -17t39 -58q4 -12 7 -27t5 -36t3 -49.5t1 -67.5t-1 -67.5t-3 -49.5t-5 -36t-7 -27q-14 -41 -39 -58t-70 -17q-69 0 -100 58h-1v-218q0 -10 -10 -10h-160zM229 138q15 0 20 14
q1 3 1.5 6.5t1 13t0.5 27v46.5v46.5t-0.5 27t-1 13t-1.5 6.5q-5 14 -20 14t-20 -14q-1 -3 -1.5 -6.5t-1 -13t-0.5 -27v-46.5v-46.5t0.5 -27t1 -13t1.5 -6.5q5 -14 20 -14z" />
      <glyph d="M256 -180q-10 0 -10 10v218h-1q-31 -58 -100 -58q-45 0 -70 17t-39 58q-4 12 -7 27t-5 36t-3 49.5t-1 67.5t1 67.5t3 49.5t5 36t7 27q14 41 39 58t70 17q71 0 102 -58h1v38q0 10 10 10h158q10 0 10 -10v-650q0 -10 -10 -10h-160zM223 138q15 0 20 14q1 3 1.5 6.5t1 13
t0.5 27v46.5v46.5t-0.5 27t-1 13t-1.5 6.5q-5 14 -20 14t-20 -14q-1 -3 -1.5 -6.5t-1 -13t-0.5 -27v-46.5v-46.5t0.5 -27t1 -13t1.5 -6.5q5 -14 20 -14z" />
      <glyph d="M36 0q-10 0 -10 10v470q0 10 10 10h160q10 0 10 -10v-41h1q15 34 46 47.5t78 13.5h7q9 0 8 -9l-20 -157q-1 -7 -10 -6q-10 2 -23 2q-43 0 -65 -25.5t-22 -90.5v-204q0 -10 -10 -10h-160z" />
      <glyph d="M198 -10q-89 0 -136.5 36t-51.5 101q0 10 8 11l138 21q10 2 12 -8q3 -34 29 -34q24 0 24 23q0 12 -6.5 17t-23.5 10l-39 11q-73 20 -103.5 60t-30.5 100q0 77 46 119.5t137 42.5q82 0 127 -35t50 -92q1 -10 -5 -11l-130 -21q-8 -2 -8 5q-2 13 -7.5 20t-19.5 7
q-12 0 -17.5 -6t-5.5 -14t7 -13t24 -10l39 -11q74 -21 104 -59.5t30 -100.5q0 -85 -49.5 -127t-141.5 -42z" />
      <glyph d="M255 -6q-50 0 -86.5 7t-60.5 27.5t-36 57t-12 95.5v173q0 6 -6 6h-33q-10 0 -10 10v110q0 10 10 10h33q6 0 6 6v124q0 10 10 10h160q10 0 10 -10v-124q0 -6 6 -6h51q10 0 10 -10v-110q0 -10 -10 -10h-51q-6 0 -6 -6v-161q0 -28 10.5 -37.5t30.5 -9.5h16q10 0 10 -10v-132
q0 -10 -10 -10h-42z" />
      <glyph d="M259 0q-10 0 -10 10v36h-1q-13 -25 -39 -40.5t-65 -15.5q-66 0 -92.5 36.5t-26.5 112.5v341q0 10 10 10h160q10 0 10 -10v-308q0 -30 21 -30t21 30v308q0 10 10 10h160q10 0 10 -10v-470q0 -10 -10 -10h-158z" />
      <glyph d="M131 0q-9 0 -12 10l-114 470q-3 10 7 10h155q9 0 11 -10l37 -260h1l37 260q2 10 11 10h150q10 0 7 -10l-113 -470q-3 -10 -12 -10h-165z" />
      <glyph d="M361 0q-11 0 -12 10l-36 210h-2l-35 -210q-1 -10 -12 -10h-135q-9 0 -12 10l-112 470q-3 10 7 10h151q9 0 11 -10l37 -248h2l36 248q2 10 11 10h105q9 0 11 -10l36 -248h2l37 248q2 10 11 10h151q10 0 7 -10l-112 -470q-3 -10 -12 -10h-135z" />
      <glyph d="M273 0q-9 0 -13 8l-42 118h-1l-45 -118q-4 -8 -13 -8h-150q-5 0 -6.5 3t0.5 7l121 243l-113 227q-2 4 -0.5 7t6.5 3h152q9 0 13 -8l35 -101h1l36 101q4 8 13 8h150q5 0 6.5 -3t-0.5 -7l-113 -227l121 -243q2 -4 0.5 -7t-6.5 -3h-152z" />
      <glyph d="M61 -180q-10 0 -10 10v132q0 10 10 10h14q30 0 43.5 8.5t16.5 27.5l1 6l-131 466q-3 10 8 10h152q9 0 12 -10l36 -228h2l41 228q2 10 12 10h145q11 0 8 -10l-133 -487q-13 -50 -31 -83t-43.5 -53t-60 -28.5t-80.5 -8.5h-12z" />
      <glyph d="M22 0q-10 0 -10 10v121q0 5 3 10l143 201v2h-125q-10 0 -10 10v126q0 10 10 10h306q10 0 10 -10v-124q0 -6 -3 -10l-141 -198v-2h134q10 0 10 -10v-126q0 -10 -10 -10h-317z" />
      <glyph d="M251 -84q-145 0 -145 146v127q0 39 -12 54.5t-44 15.5q-10 0 -10 10v122q0 10 10 10q32 0 44 15.5t12 54.5v123q0 146 145 146h58q10 0 10 -10v-108q0 -10 -10 -10h-12q-21 0 -31.5 -12.5t-10.5 -33.5v-102q0 -55 -11 -84t-45 -48v-4q17 -9 28 -20.5t17 -27t8.5 -36
t2.5 -47.5v-107q0 -21 10.5 -33.5t31.5 -12.5h12q10 0 10 -10v-108q0 -10 -10 -10h-58z" />
      <glyph d="M60 -84q-10 0 -10 10v804q0 10 10 10h133q10 0 10 -10v-804q0 -10 -10 -10h-133z" />
      <glyph d="M38 -84q-10 0 -10 10v108q0 10 10 10h12q21 0 31.5 12.5t10.5 33.5v107q0 27 2.5 47.5t8.5 36t17 27t28 20.5v4q-34 19 -45 48t-11 84v102q0 21 -10.5 33.5t-31.5 12.5h-12q-10 0 -10 10v108q0 10 10 10h58q145 0 145 -146v-123q0 -39 12 -54.5t44 -15.5q10 0 10 -10
v-122q0 -10 -10 -10q-32 0 -44 -15.5t-12 -54.5v-127q0 -146 -145 -146h-58z" />
      <glyph d="M305 154q-20 0 -37.5 6.5t-34.5 14.5t-31.5 14.5t-26.5 6.5q-15 0 -25 -7.5t-21 -29.5q-5 -9 -13 -4l-89 44q-7 4 -4 13q25 54 56 80.5t76 26.5q20 0 37.5 -6.5t34.5 -14.5t31.5 -14.5t26.5 -6.5q15 0 25 7.5t21 29.5q4 10 13 4l89 -44q7 -4 4 -13q-25 -54 -56 -80.5
t-76 -26.5z" />
      <glyph d="M252 -10q-78 0 -123 30t-64 89q-8 23 -11 50t-3 65q0 6 -6 6h-32q-10 0 -10 10v72q0 10 10 10h32q6 0 6 6v23q0 6 -6 6h-32q-10 0 -10 10v72q0 10 10 10h32q6 0 6 6q0 38 3 65.5t11 50.5q19 59 64 89t123 30q98 0 145 -44t52 -119q0 -11 -10 -12l-151 -23q-11 -2 -11 10
q-1 22 -6.5 31t-16.5 9q-14 0 -19 -14q-1 -3 -2 -7t-1.5 -11.5t-0.5 -20.5v-34q0 -6 6 -6h125q10 0 10 -10l-10 -72q-1 -10 -10 -10h-115q-6 0 -6 -6v-23q0 -6 6 -6h110q10 0 10 -10l-10 -72q-1 -10 -10 -10h-100q-6 0 -6 -6v-33.5t0.5 -20t1.5 -11.5t2 -7q5 -14 19 -14
q11 0 16.5 9t6.5 31q0 12 11 10l151 -23q10 -1 10 -12q-5 -75 -52 -119t-145 -44z" />
      <glyph d="M43 -99q-11 0 -11 11v220q0 10 10 10h114q10 0 10 -10v-110q0 -16 -10 -26l-101 -90q-5 -5 -12 -5z" />
      <glyph d="M325 297l-42 -309q-13 -90 -64 -129t-149 -39h-35q-10 0 -10 10v121q0 10 10 10h13q27 0 41 9.5t17 32.5l40 294h-51q-10 0 -10 10v110q0 10 10 10h69l12 85q13 90 64 129t149 39h35q10 0 10 -10v-121q0 -10 -10 -10h-13q-27 0 -41 -9.5t-17 -32.5l-10 -70h58
q10 0 10 -10v-110q0 -10 -10 -10h-76z" />
      <glyph d="M215 -99q-11 0 -11 11v220q0 10 10 10h114q10 0 10 -10v-110q0 -16 -10 -26l-101 -90q-5 -5 -12 -5zM43 -99q-11 0 -11 11v220q0 10 10 10h114q10 0 10 -10v-110q0 -16 -10 -26l-101 -90q-5 -5 -12 -5z" />
      <glyph d="M514 0q-10 0 -10 10v156q0 10 10 10h142q10 0 10 -10v-156q0 -10 -10 -10h-142zM280 0q-10 0 -10 10v156q0 10 10 10h142q10 0 10 -10v-156q0 -10 -10 -10h-142zM46 0q-10 0 -10 10v156q0 10 10 10h142q10 0 10 -10v-156q0 -10 -10 -10h-142z" />
      <glyph d="M170 -180q-10 0 -10 10v480q0 6 -6 6h-114q-10 0 -10 10v146q0 10 10 10h114q6 0 6 6v182q0 10 10 10h159q10 0 10 -10v-182q0 -6 6 -6h114q10 0 10 -10v-146q0 -10 -10 -10h-114q-6 0 -6 -6v-480q0 -10 -10 -10h-159z" />
      <glyph d="M170 -180q-10 0 -10 10v162q0 6 -6 6h-114q-10 0 -10 10v146q0 10 10 10h114q6 0 6 6v160q0 6 -6 6h-114q-10 0 -10 10v146q0 10 10 10h114q6 0 6 6v162q0 10 10 10h159q10 0 10 -10v-162q0 -6 6 -6h114q10 0 10 -10v-146q0 -10 -10 -10h-114q-6 0 -6 -6v-160q0 -6 6 -6
h114q10 0 10 -10v-146q0 -10 -10 -10h-114q-6 0 -6 -6v-162q0 -10 -10 -10h-159z" />
      <glyph d="M297 538q-10 0 -19 10l-47 55h-2l-47 -55q-9 -10 -19 -10h-92q-5 0 -6 3t2 7l97 144q7 10 16 10h100q9 0 16 -10l97 -144q3 -4 2 -7t-6 -3h-92z" />
      <glyph d="M211 -10q-10 0 -7 10l254 680q3 10 14 10h97q10 0 7 -10l-254 -680q-3 -10 -14 -10h-97zM185 330q-51 0 -82.5 21.5t-43.5 58.5q-2 7 -4 14.5t-3 18.5t-1.5 26.5t-0.5 39.5t0.5 39.5t1.5 26.5t3 18.5t4 14.5q12 37 43.5 58.5t82.5 21.5t82.5 -21.5t43.5 -58.5
q2 -7 4 -14.5t3 -18.5t1.5 -26.5t0.5 -39.5t-0.5 -39.5t-1.5 -26.5t-3 -18.5t-4 -14.5q-12 -37 -43.5 -58.5t-82.5 -21.5zM185 422q13 0 16 10q1 2 1.5 5t0.5 10.5v22v39.5v39.5v22t-0.5 10.5t-1.5 5q-3 10 -16 10t-16 -10q-1 -2 -1.5 -5t-0.5 -10.5v-22v-39.5v-39.5v-22
t0.5 -10.5t1.5 -5q3 -10 16 -10zM899 -8q-51 0 -82.5 21.5t-43.5 58.5q-2 7 -4 14.5t-3 18.5t-1.5 26.5t-0.5 39.5t0.5 39.5t1.5 26.5t3 18.5t4 14.5q12 37 43.5 58.5t82.5 21.5t82.5 -21.5t43.5 -58.5q2 -7 4 -14.5t3 -18.5t1.5 -26.5t0.5 -39.5t-0.5 -39.5t-1.5 -26.5
t-3 -18.5t-4 -14.5q-12 -37 -43.5 -58.5t-82.5 -21.5zM594 -8q-51 0 -82.5 21.5t-43.5 58.5q-2 7 -4 14.5t-3 18.5t-1.5 26.5t-0.5 39.5t0.5 39.5t1.5 26.5t3 18.5t4 14.5q12 37 43.5 58.5t82.5 21.5t82.5 -21.5t43.5 -58.5q2 -7 4 -14.5t3 -18.5t1.5 -26.5t0.5 -39.5
t-0.5 -39.5t-1.5 -26.5t-3 -18.5t-4 -14.5q-12 -37 -43.5 -58.5t-82.5 -21.5zM899 84q13 0 16 10q1 2 1.5 5t0.5 10.5v22v39.5v39.5v22t-0.5 10.5t-1.5 5q-3 10 -16 10t-16 -10q-1 -2 -1.5 -5t-0.5 -10.5v-22v-39.5v-39.5v-22t0.5 -10.5t1.5 -5q3 -10 16 -10zM594 84
q13 0 16 10q1 2 1.5 5t0.5 10.5v22v39.5v39.5v22t-0.5 10.5t-1.5 5q-3 10 -16 10t-16 -10q-1 -2 -1.5 -5t-0.5 -10.5v-22v-39.5v-39.5v-22t0.5 -10.5t1.5 -5q3 -10 16 -10z" />
      <glyph d="M452 217q0 -227 -220 -227q-59 0 -100.5 14.5t-67.5 40.5t-38.5 61.5t-12.5 76.5q0 10 9 12l160 25q10 2 10 -8q0 -60 35 -60q17 0 25 9.5t8 33.5q0 23 -11 34.5t-46 25.5l-41 16q-37 14 -64 32.5t-45 43.5t-26.5 57.5t-8.5 76.5q0 103 52.5 156t159.5 53
q103 0 157 -48.5t56 -129.5q0 -10 -8 -11l-154 -23q-11 -2 -11 8q-1 23 -10 32.5t-23 9.5q-28 0 -28 -33q0 -18 12 -28.5t50 -25.5l41 -16q38 -15 64.5 -33.5t43.5 -43t24.5 -57t7.5 -74.5zM182 726q-9 0 -16 10l-97 144q-3 4 -2 7t6 3h92q10 0 19 -10l47 -55h2l47 55
q9 10 19 10h92q5 0 6 -3t-2 -7l-97 -144q-7 -10 -16 -10h-100z" />
      <glyph d="M23 257q-7 7 0 14l203 215q3 3 6.5 2t3.5 -6v-152q0 -10 -10 -20l-38 -42q-4 -4 0 -8l38 -42q10 -10 10 -20v-152q0 -5 -3.5 -6t-6.5 2z" />
      <glyph d="M292 0q-10 0 -10 10v19h-1q-8 -14 -33.5 -26.5t-63.5 -12.5q-56 0 -91 26.5t-53 83.5q-4 13 -7 32.5t-5 47.5t-3 67t-1 93t1 93t3 67t5 47t7 33q18 57 53 83.5t91 26.5q38 0 63.5 -12.5t33.5 -26.5h1v19q0 10 10 10h337q10 0 10 -10v-148q0 -10 -10 -10h-155q-6 0 -6 -6
v-73q0 -6 6 -6h132q10 0 10 -10v-148q0 -10 -10 -10h-132q-6 0 -6 -6v-79q0 -6 6 -6h155q10 0 10 -10v-148q0 -10 -10 -10h-337zM248 158q20 0 26 18q1 3 2 9t1.5 22.5t0.5 47.5v85v85t-0.5 47.5t-1.5 22.5t-2 9q-6 18 -26 18t-26 -18q-1 -3 -2 -9t-1.5 -22.5t-0.5 -47.5
v-85v-85t0.5 -47.5t1.5 -22.5t2 -9q6 -18 26 -18z" />
      <glyph d="M31 0q-10 0 -10 10v142q0 6 3 12l172 346v2h-156q-10 0 -10 10v148q0 10 10 10h347q10 0 10 -10v-143q0 -6 -3 -12l-176 -345v-2h169q10 0 10 -10v-148q0 -10 -10 -10h-356zM164 726q-9 0 -16 10l-97 144q-3 4 -2 7t6 3h92q10 0 19 -10l47 -55h2l47 55q9 10 19 10h92
q5 0 6 -3t-2 -7l-97 -144q-7 -10 -16 -10h-100z" />
      <glyph d="M42 440q-10 0 -10 10v110q0 16 10 26l101 90q5 5 12 5q11 0 11 -11v-220q0 -10 -10 -10h-114z" />
      <glyph d="M43 439q-11 0 -11 11v220q0 10 10 10h114q10 0 10 -10v-110q0 -16 -10 -26l-101 -90q-5 -5 -12 -5z" />
      <glyph d="M214 440q-10 0 -10 10v110q0 16 10 26l101 90q5 5 12 5q11 0 11 -11v-220q0 -10 -10 -10h-114zM42 440q-10 0 -10 10v110q0 16 10 26l101 90q5 5 12 5q11 0 11 -11v-220q0 -10 -10 -10h-114z" />
      <glyph d="M215 439q-11 0 -11 11v220q0 10 10 10h114q10 0 10 -10v-110q0 -16 -10 -26l-101 -90q-5 -5 -12 -5zM43 439q-11 0 -11 11v220q0 10 10 10h114q10 0 10 -10v-110q0 -16 -10 -26l-101 -90q-5 -5 -12 -5z" />
      <glyph d="M208 142q-35 0 -65.5 12.5t-53 35t-35 53t-12.5 65.5t12.5 65.5t35 53t53 35t65.5 12.5t65.5 -12.5t53 -35t35 -53t12.5 -65.5t-12.5 -65.5t-35 -53t-53 -35t-65.5 -12.5z" />
      <glyph d="M20 194q-10 0 -10 10v122q0 10 10 10h428q10 0 10 -10v-122q0 -10 -10 -10h-428z" />
      <glyph d="M20 194q-10 0 -10 10v122q0 10 10 10h633q10 0 10 -10v-122q0 -10 -10 -10h-633z" />
      <glyph d="M290 538q-20 0 -35 6.5t-29 14.5q-13 8 -26.5 13.5t-30.5 5.5q-23 0 -39 -9t-33 -26q-4 -4 -7 -3t-3 6v102q0 6 1 8.5t5 6.5q15 16 34 25.5t43 9.5q20 0 35 -6.5t29 -14.5q13 -8 26.5 -13.5t30.5 -5.5q23 0 39 9t33 26q4 4 7 3t3 -6v-102q0 -6 -1 -8.5t-5 -6.5
q-15 -16 -34 -25.5t-43 -9.5z" />
      <glyph d="M569 286q-10 0 -10 10l-2 172h-4l-25 -102q-3 -10 -12 -10h-40q-9 0 -12 10l-27 102h-4v-172q0 -10 -10 -10h-79q-10 0 -10 10v374q0 10 10 10h90q9 0 12 -10l49 -169h4l48 169q3 10 12 10h89q10 0 10 -10v-374q0 -10 -10 -10h-79zM115 286q-10 0 -10 10v281q0 6 -6 6
h-69q-10 0 -10 10v77q0 10 10 10h262q10 0 10 -10v-77q0 -10 -10 -10h-69q-6 0 -6 -6v-281q0 -10 -10 -10h-92z" />
      <glyph d="M198 -10q-89 0 -136.5 36t-51.5 101q0 10 8 11l138 21q10 2 12 -8q3 -34 29 -34q24 0 24 23q0 12 -6.5 17t-23.5 10l-39 11q-73 20 -103.5 60t-30.5 100q0 77 46 119.5t137 42.5q82 0 127 -35t50 -92q1 -10 -5 -11l-130 -21q-8 -2 -8 5q-2 13 -7.5 20t-19.5 7
q-12 0 -17.5 -6t-5.5 -14t7 -13t24 -10l39 -11q74 -21 104 -59.5t30 -100.5q0 -85 -49.5 -127t-141.5 -42zM151 534q-9 0 -16 10l-97 144q-3 4 -2 7t6 3h92q10 0 19 -10l47 -55h2l47 55q9 10 19 10h92q5 0 6 -3t-2 -7l-97 -144q-7 -10 -16 -10h-100z" />
      <glyph d="M54 42q-3 -3 -6.5 -2t-3.5 6v152q0 10 10 20l38 42q4 4 0 8l-38 42q-10 10 -10 20v152q0 5 3.5 6t6.5 -2l203 -215q7 -7 0 -14z" />
      <glyph d="M438 -10q-32 0 -58 7.5t-49 25.5h-2q-26 -18 -51.5 -25.5t-58.5 -7.5q-148 0 -188 122q-8 23 -11.5 51t-3.5 82t3.5 82t11.5 51q40 122 186 122q32 0 61.5 -8.5t50.5 -24.5h2q21 17 51.5 25t57.5 8q73 0 117 -30.5t62 -86.5q4 -12 6.5 -24t4.5 -31.5t3 -49t1 -75.5
q0 -10 -10 -10h-198q-6 0 -6 -6q0 -22 0.5 -28.5t2.5 -11.5q2 -8 8 -11t13 -3q19 0 28 24q3 9 12 8l137 -28q9 -1 7 -12q-14 -69 -65 -102t-125 -33zM462 296q6 0 6 6q0 29 -0.5 38.5t-2.5 14.5q-5 15 -21 15q-17 0 -21 -15q-2 -5 -2.5 -14.5t-0.5 -38.5q0 -6 6 -6h36z
M219 138q16 0 20 14q1 2 1.5 5.5t1 13.5t0.5 27.5v46.5v46.5t-0.5 27.5t-1 13.5t-1.5 5.5q-4 14 -20 14t-20 -14q-1 -2 -1.5 -5.5t-1 -13.5t-0.5 -27.5v-46.5v-46.5t0.5 -27.5t1 -13.5t1.5 -5.5q4 -14 20 -14z" />
      <glyph d="M22 0q-10 0 -10 10v121q0 5 3 10l143 201v2h-125q-10 0 -10 10v126q0 10 10 10h306q10 0 10 -10v-124q0 -6 -3 -10l-141 -198v-2h134q10 0 10 -10v-126q0 -10 -10 -10h-317zM136 534q-9 0 -16 10l-97 144q-3 4 -2 7t6 3h92q10 0 19 -10l47 -55h2l47 55q9 10 19 10h92
q5 0 6 -3t-2 -7l-97 -144q-7 -10 -16 -10h-100z" />
      <glyph d="M152 0q-10 0 -10 10v237l-137 423q-3 10 8 10h167q10 0 12 -10l45 -218h4l43 218q2 10 12 10h165q11 0 8 -10l-137 -423v-237q0 -10 -10 -10h-170zM269 739q-10 0 -10 10v124q0 10 10 10h106q10 0 10 -10v-124q0 -10 -10 -10h-106zM99 739q-10 0 -10 10v124q0 10 10 10
h106q10 0 10 -10v-124q0 -10 -10 -10h-106z" />
      <glyph />
      <glyph d="M182.005 258.014q9.99902 0 9.99902 -9.99902l29.999 -427.974q0 -10 -10 -10h-159.99q-9.99902 0 -9.99902 10l29.998 427.974q0 9.99902 9.99902 9.99902h99.9941zM213.003 324.01q0 -9.99902 -9.99902 -9.99902h-141.991q-10 0 -10 9.99902v155.991
q0 9.99902 10 9.99902h141.991q9.99902 0 9.99902 -9.99902v-155.991z" />
      <glyph d="M426 139q-7 -60 -41.5 -97t-95.5 -48v-79q0 -10 -10 -10h-93q-10 0 -10 10v81q-95 20 -124 111q-8 23 -10.5 54.5t-2.5 83.5t2.5 83.5t10.5 54.5q30 90 124 110v82q0 10 10 10h93q10 0 10 -10v-79q61 -11 95.5 -48t41.5 -97q2 -10 -8 -12l-140 -24q-12 -2 -12 9
q0 28 -23 28q-17 0 -21 -13q-1 -2 -1.5 -6t-1 -13.5t-0.5 -27v-47.5v-47.5t0.5 -27.5t1 -13.5t1.5 -5.5q4 -13 21 -13q23 0 23 28q0 10 12 9l140 -24q10 -2 8 -12z" />
      <glyph d="M33 0q-10 0 -10 10v123q0 10 7 17t11.5 14.5t7.5 17.5t4 23.5t1 33.5v24q0 6 -6 6h-26q-10 0 -10 10v102q0 10 10 10h26q6 0 6 6v107q0 94 53.5 140t143.5 46q50 0 87 -13t61.5 -36t36.5 -54.5t12 -68.5q0 -10 -10 -11l-154 -23q-10 -1 -10 10q0 28 -4.5 38t-15.5 10
q-20 0 -20 -35v-110q0 -6 6 -6h110q10 0 10 -10v-102q0 -10 -10 -10h-110q-6 0 -6 -6v-27q0 -29 -6 -49.5t-20 -35.5v-3h221q10 0 10 -10v-128q0 -10 -10 -10h-396z" />
      <glyph d="M363 112q-7 -7 -14 0l-57 57q-14 -6 -29.5 -8.5t-32.5 -2.5q-37 0 -63 11l-56 -57q-7 -7 -14 0l-75 75q-7 7 0 14l55 54q-14 33 -14 68q0 34 12 63l-56 56q-7 7 0 14l75 75q7 7 14 0l55 -56q16 6 32.5 9.5t34.5 3.5t34.5 -3.5t31.5 -9.5l56 56q7 7 14 0l75 -75
q7 -7 0 -14l-56 -56q12 -29 12 -63q0 -35 -14 -68l55 -54q7 -7 0 -14zM230 283q17 0 28 11t11 29t-11 29t-28 11t-28 -11t-11 -29t11 -29t28 -11z" />
      <glyph d="M150 0q-10 0 -10 10v68q0 6 -6 6h-80q-10 0 -10 10v76q0 10 10 10h80q6 0 6 6v19q0 6 -6 6h-80q-10 0 -10 10v76q0 10 10 10h69v3l-114 360q-3 10 8 10h158q10 0 12 -10l43 -218h4l41 218q2 10 12 10h156q11 0 8 -10l-114 -360v-3h69q10 0 10 -10v-76q0 -10 -10 -10h-80
q-6 0 -6 -6v-19q0 -6 6 -6h80q10 0 10 -10v-76q0 -10 -10 -10h-80q-6 0 -6 -6v-68q0 -10 -10 -10h-160z" />
      <glyph d="M60 388q-10 0 -10 10v332q0 10 10 10h133q10 0 10 -10v-332q0 -10 -10 -10h-133zM60 -84q-10 0 -10 10v336q0 10 10 10h133q10 0 10 -10v-336q0 -10 -10 -10h-133z" />
      <glyph d="M235 -190q-75 0 -123.5 26t-66.5 80q-4 12 -6 27t-2 46q0 8 9 10l150 13q10 1 10 -10q0 -26 0.5 -34.5t2.5 -13.5q5 -14 20 -14t20 14q3 9 3 26q0 20 -4 32q-6 19 -24.5 30.5t-54.5 24.5q-55 20 -85.5 44.5t-43.5 62.5q-10 29 -10 78q0 52 9 78q7 21 21 35.5t35 26.5v1
q-39 21 -55 70q-5 14 -6.5 27.5t-1.5 34.5q0 19 2 33t6 26q17 54 66.5 80t121.5 26q74 0 122.5 -26t66.5 -80q4 -12 6 -25.5t2 -39.5q0 -9 -9 -10l-148 -13q-5 -1 -7.5 2t-2.5 8q0 22 -0.5 28.5t-2.5 11.5q-5 14 -20 14t-20 -14q-2 -5 -2.5 -9t-0.5 -12q0 -22 4 -34
q6 -19 24 -29.5t57 -24.5q55 -19 85.5 -44t43.5 -63q10 -29 10 -78q0 -25 -2 -45t-7 -33q-7 -21 -21.5 -35.5t-38.5 -27.5v-1q20 -11 34.5 -27.5t22.5 -42.5q5 -14 6.5 -27.5t1.5 -32.5q0 -23 -2 -37.5t-6 -26.5q-17 -54 -67 -80t-122 -26zM233 189q15 0 20 14q2 5 2.5 14
t0.5 35t-0.5 35t-2.5 14q-5 14 -20 14t-20 -14q-2 -5 -2.5 -14t-0.5 -35t0.5 -35t2.5 -14q5 -14 20 -14z" />
      <glyph d="M262 538q-10 0 -10 10v124q0 10 10 10h106q10 0 10 -10v-124q0 -10 -10 -10h-106zM92 538q-10 0 -10 10v124q0 10 10 10h106q10 0 10 -10v-124q0 -10 -10 -10h-106z" />
      <glyph d="M351 -10q-112 0 -191.5 54t-111.5 152q-9 27 -13.5 61.5t-4.5 82.5t4.5 82.5t13.5 61.5q32 98 111.5 152t191.5 54t191.5 -54t111.5 -152q9 -27 13.5 -61.5t4.5 -82.5t-4.5 -82.5t-13.5 -61.5q-32 -98 -111.5 -152t-191.5 -54zM351 80q77 0 129.5 37t75.5 106
q7 21 10.5 47.5t3.5 69.5t-3.5 69.5t-10.5 47.5q-23 69 -75.5 106t-129.5 37t-129.5 -37t-75.5 -106q-7 -21 -10.5 -47.5t-3.5 -69.5t3.5 -69.5t10.5 -47.5q23 -69 75.5 -106t129.5 -37zM355 143q-54 0 -92.5 22.5t-54.5 70.5q-2 7 -4 15.5t-3.5 20.5t-2 28.5t-0.5 39.5
q0 46 2.5 68t7.5 36q16 48 54.5 70.5t92.5 22.5q64 0 102 -31t43 -79q2 -10 -8 -12l-103 -18q-11 -2 -12 8q-3 20 -19 20q-13 0 -16 -10q-1 -2 -1.5 -5t-1 -10t-0.5 -21v-39v-39t0.5 -21t1 -10t1.5 -5q3 -10 16 -10q16 0 19 20q1 10 12 8l103 -18q10 -2 8 -12
q-5 -48 -43 -79t-102 -31z" />
      <glyph d="M184 392q-10 0 -10 10v13h-2q-18 -25 -61 -25q-13 0 -26.5 4.5t-24.5 14.5t-18 26.5t-7 40.5q0 28 10 46.5t26 29t34.5 14.5t36.5 4h26q6 0 6 6v4q0 11 -7.5 16t-29.5 5q-14 0 -27 -3.5t-22 -8.5q-12 -7 -17 4l-24 59q-3 9 5 13q18 10 45.5 16t55.5 6q69 0 98 -27t29 -81
v-177q0 -10 -10 -10h-86zM153 464q8 0 14.5 4.5t6.5 17.5v17q0 6 -6 6h-12q-22 0 -22 -24q0 -21 19 -21z" />
      <glyph d="M237 257q-7 7 0 14l203 215q3 3 6.5 2t3.5 -6v-152q0 -10 -10 -20l-38 -42q-4 -4 0 -8l38 -42q10 -10 10 -20v-152q0 -5 -3.5 -6t-6.5 2zM23 257q-7 7 0 14l203 215q3 3 6.5 2t3.5 -6v-152q0 -10 -10 -20l-38 -42q-4 -4 0 -8l38 -42q10 -10 10 -20v-152q0 -5 -3.5 -6
t-6.5 2z" />
      <glyph d="M306 95q-10 0 -10 10v97q0 6 -6 6h-256q-10 0 -10 10v116q0 10 10 10h392q10 0 10 -10v-229q0 -10 -10 -10h-120z" />
      <glyph d="M40 185q-10 0 -10 10v140q0 10 10 10h268q10 0 10 -10v-140q0 -10 -10 -10h-268z" />
      <glyph d="M201 302q-63 0 -106.5 30.5t-60.5 83.5q-5 14 -7.5 31.5t-2.5 45.5q0 27 2.5 44.5t7.5 31.5q17 53 60.5 83.5t106.5 30.5q62 0 106 -30.5t61 -83.5q5 -14 7.5 -31.5t2.5 -44.5q0 -28 -2.5 -45.5t-7.5 -31.5q-17 -53 -61 -83.5t-106 -30.5zM201 353q44 0 73.5 20.5
t41.5 58.5q4 11 5.5 25t1.5 36q0 21 -1.5 35t-5.5 25q-12 38 -41.5 59t-73.5 21t-73.5 -21t-41.5 -59q-4 -11 -6 -25t-2 -35q0 -22 2 -36t6 -25q12 -38 41.5 -58.5t73.5 -20.5zM138 388q-7 0 -7 7v198q0 7 7 7h72q29 0 48.5 -16t19.5 -54q0 -20 -6 -32t-16 -20l26 -83
q1 -7 -6 -7h-49q-6 0 -9 7l-18 67h-6q-2 0 -2 -2v-65q0 -7 -7 -7h-47zM199 510q9 0 13 4t4 16t-4 16.5t-13 4.5h-3q-4 0 -4 -5v-32q0 -4 4 -4h3z" />
      <glyph d="M96 549q-10 0 -10 10v106q0 10 10 10h268q10 0 10 -10v-106q0 -10 -10 -10h-268z" />
      <glyph d="M171 399q-31 0 -57.5 11t-46 30t-30.5 45.5t-11 57.5t11 57.5t30.5 45.5t46 30t57.5 11t57.5 -11t46 -30t30.5 -45.5t11 -57.5t-11 -57.5t-30.5 -45.5t-46 -30t-57.5 -11zM171 492q22 0 35.5 14t13.5 37t-13.5 37t-35.5 14t-35.5 -14t-13.5 -37t13.5 -37t35.5 -14z" />
      <glyph d="M170 185q-10 0 -10 10v124q0 6 -6 6h-120q-10 0 -10 10v116q0 10 10 10h120q6 0 6 6v124q0 10 10 10h120q10 0 10 -10v-124q0 -6 6 -6h120q10 0 10 -10v-116q0 -10 -10 -10h-120q-6 0 -6 -6v-124q0 -10 -10 -10h-120zM34 0q-10 0 -10 10v116q0 10 10 10h392q10 0 10 -10
v-116q0 -10 -10 -10h-392z" />
      <glyph d="M47 430q-10 0 -10 10v84q0 10 7 17l115 124q16 18 20 25.5t4 22.5q0 11 -2 17q-4 11 -16 11t-16 -11q-1 -2 -1.5 -6.5t-0.5 -13.5q0 -12 -12 -10l-102 10q-10 1 -10 12q0 16 2 26t4 18q11 36 47.5 56.5t91.5 20.5t91.5 -20.5t47.5 -56.5q2 -8 4 -19t2 -34
q0 -31 -9.5 -52.5t-33.5 -50.5l-59 -69v-2h85q10 0 10 -10v-89q0 -10 -10 -10h-249z" />
      <glyph d="M168 423q-56 0 -92.5 20.5t-47.5 56.5q-5 17 -5 30q0 11 10 12l102 10q12 2 12 -10q0 -5 2 -9q4 -8 16 -8t16 11q2 6 2 18q0 5 -0.5 8t-1.5 6q-4 13 -24 13h-7q-10 0 -10 10v91q0 10 10 10h13q15 0 18 10q2 6 2 12q0 10 -2 16q-4 11 -16 11t-16 -8q-2 -4 -2 -9
q0 -12 -12 -10l-102 10q-10 1 -10 12q0 13 5 30q11 36 47.5 56.5t92.5 20.5t92.5 -20.5t47.5 -56.5q2 -8 3.5 -17t1.5 -21q0 -11 -1 -19.5t-4 -17.5q-10 -30 -44 -48v-2q32 -14 43 -46q6 -20 6 -47q0 -19 -1.5 -29.5t-3.5 -18.5q-11 -36 -47.5 -56.5t-92.5 -20.5z" />
      <glyph d="M125 540q-11 0 -6 10l78 144q6 10 16 10h144q5 0 6.5 -3t-1.5 -7l-100 -144q-8 -10 -18 -10h-119z" />
      <glyph d="M258 0q-10 0 -10 10v36h-1q-6 -17 -16.5 -27.5t-24.5 -18.5v-170q0 -10 -10 -10h-160q-10 0 -10 10v650q0 10 10 10h160q10 0 10 -10v-309q0 -17 5 -24t16 -7t16 7t5 24v309q0 10 10 10h160q10 0 10 -10v-470q0 -10 -10 -10h-160z" />
      <glyph d="M258 0q-10 0 -10 10v36h-1q-6 -17 -16.5 -27.5t-24.5 -18.5v-170q0 -10 -10 -10h-160q-10 0 -10 10v650q0 10 10 10h160q10 0 10 -10v-309q0 -17 5 -24t16 -7t16 7t5 24v309q0 10 10 10h160q10 0 10 -10v-470q0 -10 -10 -10h-160z" />
      <glyph d="M405 -180q-10 0 -10 10v697q0 6 -6 6h-26q-6 0 -6 -6v-697q0 -10 -10 -10h-123q-10 0 -10 10v388q-40 3 -74 22t-58.5 50t-38 71.5t-13.5 87.5t15.5 89t44.5 73.5t71 50t95 18.5h272q10 0 10 -10v-840q0 -10 -10 -10h-123z" />
      <glyph d="M46 177q-10 0 -10 10v156q0 10 10 10h142q10 0 10 -10v-156q0 -10 -10 -10h-142z" />
      <glyph d="M200 0q4 10 17 10h110q10 0 7 -10l-59 -162q-4 -10 -15 -10h-126q-11 0 -6 10z" />
      <glyph d="M156 430q-10 0 -10 10v258h-2l-55 -34q-4 -2 -7 -1t-3 6v110q0 10 7 14l57 37q9 6 17 6h106q10 0 10 -10v-386q0 -10 -10 -10h-110z" />
      <glyph d="M167 385q-96 0 -123 80q-5 14 -7 30.5t-2 40.5t2 40.5t7 30.5q27 80 123 80t123 -80q5 -14 7 -30.5t2 -40.5t-2 -40.5t-7 -30.5q-27 -80 -123 -80zM167 474q15 0 19 14q1 2 1.5 10.5t0.5 37.5t-0.5 37.5t-1.5 10.5q-4 14 -19 14t-19 -14q-1 -2 -1.5 -10.5t-0.5 -37.5
t0.5 -37.5t1.5 -10.5q4 -14 19 -14z" />
      <glyph d="M268 42q-3 -3 -6.5 -2t-3.5 6v152q0 10 10 20l38 42q4 4 0 8l-38 42q-10 10 -10 20v152q0 5 3.5 6t6.5 -2l203 -215q7 -7 0 -14zM54 42q-3 -3 -6.5 -2t-3.5 6v152q0 10 10 20l38 42q4 4 0 8l-38 42q-10 10 -10 20v152q0 5 3.5 6t6.5 -2l203 -215q7 -7 0 -14z" />
      <glyph d="M213 -10q-10 0 -7 10l254 680q3 10 14 10h97q10 0 7 -10l-254 -680q-3 -10 -14 -10h-97zM138 274q-10 0 -10 10v258h-2l-55 -34q-4 -2 -7 -1t-3 6v110q0 10 7 14l57 37q9 6 17 6h106q10 0 10 -10v-386q0 -10 -10 -10h-110zM636 1q-10 0 -10 10v44q0 6 -6 6h-145
q-10 0 -10 10v96q0 8 3 16l77 214q3 10 13 10h110q10 0 7 -10l-79 -225v-2h24q6 0 6 6v39q0 10 10 10h98q10 0 10 -10v-39q0 -6 5 -6h5q10 0 10 -10v-89q0 -10 -10 -10h-4q-6 0 -6 -6v-44q0 -10 -10 -10h-98z" />
      <glyph d="M213 -10q-10 0 -7 10l254 680q3 10 14 10h97q10 0 7 -10l-254 -680q-3 -10 -14 -10h-97zM138 274q-10 0 -10 10v258h-2l-55 -34q-4 -2 -7 -1t-3 6v110q0 10 7 14l57 37q9 6 17 6h106q10 0 10 -10v-386q0 -10 -10 -10h-110zM521 1q-10 0 -10 10v84q0 10 7 17l115 124
q16 18 20 25.5t4 22.5q0 11 -2 17q-4 11 -16 11t-16 -11q-1 -2 -1.5 -6.5t-0.5 -13.5q0 -12 -12 -10l-102 10q-10 1 -10 12q0 16 2 26t4 18q11 36 47.5 56.5t91.5 20.5t91.5 -20.5t47.5 -56.5q2 -8 4 -19t2 -34q0 -31 -9.5 -52.5t-33.5 -50.5l-59 -69v-2h85q10 0 10 -10v-89
q0 -10 -10 -10h-249z" />
      <glyph d="M279 -10q-10 0 -7 10l254 680q3 10 14 10h97q10 0 7 -10l-254 -680q-3 -10 -14 -10h-97zM205 267q-56 0 -92.5 20.5t-47.5 56.5q-5 17 -5 30q0 11 10 12l102 10q12 2 12 -10q0 -5 2 -9q4 -8 16 -8t16 11q2 6 2 18q0 5 -0.5 8t-1.5 6q-4 13 -24 13h-7q-10 0 -10 10v91
q0 10 10 10h13q15 0 18 10q2 6 2 12q0 10 -2 16q-4 11 -16 11t-16 -8q-2 -4 -2 -9q0 -12 -12 -10l-102 10q-10 1 -10 12q0 13 5 30q11 36 47.5 56.5t92.5 20.5t92.5 -20.5t47.5 -56.5q2 -8 3.5 -17t1.5 -21q0 -11 -1 -19.5t-4 -17.5q-10 -30 -44 -48v-2q32 -14 43 -46
q6 -20 6 -47q0 -19 -1.5 -29.5t-3.5 -18.5q-11 -36 -47.5 -56.5t-92.5 -20.5zM702 1q-10 0 -10 10v44q0 6 -6 6h-145q-10 0 -10 10v96q0 8 3 16l77 214q3 10 13 10h110q10 0 7 -10l-79 -225v-2h24q6 0 6 6v39q0 10 10 10h98q10 0 10 -10v-39q0 -6 5 -6h5q10 0 10 -10v-89
q0 -10 -10 -10h-4q-6 0 -6 -6v-44q0 -10 -10 -10h-98z" />
      <glyph d="M296.008 258.014q10 0 10 -9.99902v-24.998q0 -26.999 -7 -47.9971q-6.99902 -20.999 -23.998 -43.998l-46.9971 -62.9961q-19.999 -25.998 -24.999 -41.9971t-5 -38.998q0 -15.999 3 -24.998q5 -13.999 20.999 -13.999t20.999 13.999q2 5 2.5 12.999q0.5 8 0.5 33.998
q0 11.999 11.999 9.99902l151.99 -14.999q10 -1 10 -11.999q0 -22.998 -2.5 -39.9971t-7.5 -32.998q-17.999 -56.9971 -65.4961 -87.9951t-125.492 -30.998t-125.492 30.998t-65.4961 87.9951q-9.99902 29.998 -9.99902 67.9951q0 25.999 9.49902 56.4971
q9.5 30.498 36.498 67.4961l46.9971 62.9961q13.999 18.999 18.499 30.998q4.49902 11.999 4.49902 27.998v14.999q0 9.99902 10 9.99902h151.99zM297.008 324.01q0 -9.99902 -9.99902 -9.99902h-141.991q-10 0 -10 9.99902v155.991q0 9.99902 10 9.99902h141.991
q9.99902 0 9.99902 -9.99902v-155.991z" />
      <glyph d="M155 670q2 10 12 10h198q10 0 12 -10l148 -660q2 -10 -8 -10h-170q-10 0 -12 10l-14 90h-111l-15 -90q-2 -10 -12 -10h-170q-10 0 -8 10zM300 234l-32 206h-2l-34 -206h68zM215 738q-11 0 -20 10l-117 132q-3 4 -1.5 7t6.5 3h143q10 0 17 -10l95 -132q3 -4 1.5 -7
t-6.5 -3h-118z" />
      <glyph d="M155 670q2 10 12 10h198q10 0 12 -10l148 -660q2 -10 -8 -10h-170q-10 0 -12 10l-14 90h-111l-15 -90q-2 -10 -12 -10h-170q-10 0 -8 10zM300 234l-32 206h-2l-34 -206h68zM199 738q-5 0 -6.5 3t1.5 7l95 132q7 10 17 10h143q5 0 6.5 -3t-1.5 -7l-117 -132
q-9 -10 -20 -10h-118z" />
      <glyph d="M155 670q2 10 12 10h198q10 0 12 -10l148 -660q2 -10 -8 -10h-170q-10 0 -12 10l-14 90h-111l-15 -90q-2 -10 -12 -10h-170q-10 0 -8 10zM300 234l-32 206h-2l-34 -206h68zM332 734q-10 0 -19 10l-47 55h-2l-47 -55q-9 -10 -19 -10h-92q-5 0 -6 3t2 7l97 144q7 10 16 10
h100q9 0 16 -10l97 -144q3 -4 2 -7t-6 -3h-92z" />
      <glyph d="M155 670q2 10 12 10h198q10 0 12 -10l148 -660q2 -10 -8 -10h-170q-10 0 -12 10l-14 90h-111l-15 -90q-2 -10 -12 -10h-170q-10 0 -8 10zM300 234l-32 206h-2l-34 -206h68zM325 732q-20 0 -35 6.5t-29 14.5q-13 8 -26.5 13.5t-30.5 5.5q-23 0 -39 -9t-33 -26q-4 -4 -7 -3
t-3 6v102q0 6 1 8.5t5 6.5q15 16 34 25.5t43 9.5q20 0 35 -6.5t29 -14.5q13 -8 26.5 -13.5t30.5 -5.5q23 0 39 9t33 26q4 4 7 3t3 -6v-102q0 -6 -1 -8.5t-5 -6.5q-15 -16 -34 -25.5t-43 -9.5z" />
      <glyph d="M155 670q2 10 12 10h198q10 0 12 -10l148 -660q2 -10 -8 -10h-170q-10 0 -12 10l-14 90h-111l-15 -90q-2 -10 -12 -10h-170q-10 0 -8 10zM300 234l-32 206h-2l-34 -206h68zM297 739q-10 0 -10 10v124q0 10 10 10h106q10 0 10 -10v-124q0 -10 -10 -10h-106zM127 739
q-10 0 -10 10v124q0 10 10 10h106q10 0 10 -10v-124q0 -10 -10 -10h-106z" />
      <glyph d="M155 670q2 10 12 10h198q10 0 12 -10l148 -660q2 -10 -8 -10h-170q-10 0 -12 10l-14 90h-111l-15 -90q-2 -10 -12 -10h-170q-10 0 -8 10zM300 234l-32 206h-2l-34 -206h68zM265 702q-48 0 -79 30t-31 78t31 78t79 30t79 -30t31 -78t-31 -78t-79 -30zM265 769
q17 0 28 11.5t11 29.5t-11 29.5t-28 11.5t-28 -11.5t-11 -29.5t11 -29.5t28 -11.5z" />
      <glyph d="M342 0q-10 0 -10 10v84q0 6 -6 6h-107l-24 -90q-3 -10 -13 -10h-170q-10 0 -7 10l200 660q3 10 12 10h466q10 0 10 -10v-148q0 -10 -10 -10h-155q-6 0 -6 -6v-73q0 -6 6 -6h132q10 0 10 -10v-148q0 -10 -10 -10h-132q-6 0 -6 -6v-79q0 -6 6 -6h155q10 0 10 -10v-148
q0 -10 -10 -10h-341zM254 234h72q6 0 6 6v272h-4z" />
      <glyph d="M174 -3q-100 22 -134 127q-4 12 -7 27t-5 39t-3 60t-1 90t1 90t3 60t5 39t7 27q23 69 73 101.5t131 32.5q52 0 91.5 -14.5t66 -40t41 -61t16.5 -77.5q0 -11 -8 -12l-165 -26q-11 -2 -11 9q-1 30 -8 42t-21 12q-18 0 -23 -16q-2 -5 -2.5 -11t-1.5 -22.5t-1 -47.5v-85v-85
t1 -47.5t1.5 -22.5t2.5 -11q5 -16 23 -16q14 0 21 12t8 42q0 11 11 9l165 -26q8 -1 8 -12q-4 -71 -41 -120.5t-110 -65.5l-57 -159q-4 -10 -15 -10h-126q-11 0 -6 10z" />
      <glyph d="M28 670q0 10 10 10h341q10 0 10 -10v-148q0 -10 -10 -10h-155q-6 0 -6 -6v-73q0 -6 6 -6h132q10 0 10 -10v-148q0 -10 -10 -10h-132q-6 0 -6 -6v-79q0 -6 6 -6h155q10 0 10 -10v-148q0 -10 -10 -10h-341q-10 0 -10 10v660zM157 738q-11 0 -20 10l-117 132q-3 4 -1.5 7
t6.5 3h143q10 0 17 -10l95 -132q3 -4 1.5 -7t-6.5 -3h-118z" />
      <glyph d="M28 670q0 10 10 10h341q10 0 10 -10v-148q0 -10 -10 -10h-155q-6 0 -6 -6v-73q0 -6 6 -6h132q10 0 10 -10v-148q0 -10 -10 -10h-132q-6 0 -6 -6v-79q0 -6 6 -6h155q10 0 10 -10v-148q0 -10 -10 -10h-341q-10 0 -10 10v660zM133 738q-5 0 -6.5 3t1.5 7l95 132q7 10 17 10
h143q5 0 6.5 -3t-1.5 -7l-117 -132q-9 -10 -20 -10h-118z" />
      <glyph d="M28 670q0 10 10 10h341q10 0 10 -10v-148q0 -10 -10 -10h-155q-6 0 -6 -6v-73q0 -6 6 -6h132q10 0 10 -10v-148q0 -10 -10 -10h-132q-6 0 -6 -6v-79q0 -6 6 -6h155q10 0 10 -10v-148q0 -10 -10 -10h-341q-10 0 -10 10v660zM276 734q-10 0 -19 10l-47 55h-2l-47 -55
q-9 -10 -19 -10h-92q-5 0 -6 3t2 7l97 144q7 10 16 10h100q9 0 16 -10l97 -144q3 -4 2 -7t-6 -3h-92z" />
      <glyph d="M28 670q0 10 10 10h341q10 0 10 -10v-148q0 -10 -10 -10h-155q-6 0 -6 -6v-73q0 -6 6 -6h132q10 0 10 -10v-148q0 -10 -10 -10h-132q-6 0 -6 -6v-79q0 -6 6 -6h155q10 0 10 -10v-148q0 -10 -10 -10h-341q-10 0 -10 10v660zM241 739q-10 0 -10 10v124q0 10 10 10h106
q10 0 10 -10v-124q0 -10 -10 -10h-106zM71 739q-10 0 -10 10v124q0 10 10 10h106q10 0 10 -10v-124q0 -10 -10 -10h-106z" />
      <glyph d="M28 670q0 10 10 10h170q10 0 10 -10v-660q0 -10 -10 -10h-170q-10 0 -10 10v660zM72 738q-11 0 -20 10l-117 132q-3 4 -1.5 7t6.5 3h143q10 0 17 -10l95 -132q3 -4 1.5 -7t-6.5 -3h-118z" />
      <glyph d="M28 670q0 10 10 10h170q10 0 10 -10v-660q0 -10 -10 -10h-170q-10 0 -10 10v660zM58 738q-5 0 -6.5 3t1.5 7l95 132q7 10 17 10h143q5 0 6.5 -3t-1.5 -7l-117 -132q-9 -10 -20 -10h-118z" />
      <glyph d="M28 670q0 10 10 10h170q10 0 10 -10v-660q0 -10 -10 -10h-170q-10 0 -10 10v660zM191 734q-10 0 -19 10l-47 55h-2l-47 -55q-9 -10 -19 -10h-92q-5 0 -6 3t2 7l97 144q7 10 16 10h100q9 0 16 -10l97 -144q3 -4 2 -7t-6 -3h-92z" />
      <glyph d="M28 670q0 10 10 10h170q10 0 10 -10v-660q0 -10 -10 -10h-170q-10 0 -10 10v660zM156 739q-10 0 -10 10v124q0 10 10 10h106q10 0 10 -10v-124q0 -10 -10 -10h-106zM-14 739q-10 0 -10 10v124q0 10 10 10h106q10 0 10 -10v-124q0 -10 -10 -10h-106z" />
      <glyph d="M42 0q-10 0 -10 10v265q0 6 -6 6h-24q-10 0 -10 10v102q0 10 10 10h24q6 0 6 6v261q0 10 10 10h208q79 0 130 -28.5t72 -93.5q4 -14 8 -31.5t6.5 -42.5t4 -60t1.5 -84t-1.5 -84t-4 -60t-6.5 -42.5t-8 -31.5q-21 -65 -72 -93.5t-130 -28.5h-208zM234 168q31 0 39 23
q2 5 3.5 13t2 23.5t1 42.5t0.5 70t-0.5 70t-1 42.5t-2 23.5t-3.5 13q-8 23 -39 23h-8q-6 0 -6 -6v-98q0 -6 6 -6h17q10 0 10 -10v-102q0 -10 -10 -10h-17q-6 0 -6 -6v-100q0 -6 6 -6h8z" />
      <glyph d="M28 670q0 10 10 10h166q12 0 15 -10l92 -325h5v325q0 10 10 10h144q10 0 10 -10v-660q0 -10 -10 -10h-166q-12 0 -15 10l-92 325h-5v-325q0 -10 -10 -10h-144q-10 0 -10 10v660zM314 732q-20 0 -35 6.5t-29 14.5q-13 8 -26.5 13.5t-30.5 5.5q-23 0 -39 -9t-33 -26
q-4 -4 -7 -3t-3 6v102q0 6 1 8.5t5 6.5q15 16 34 25.5t43 9.5q20 0 35 -6.5t29 -14.5q13 -8 26.5 -13.5t30.5 -5.5q23 0 39 9t33 26q4 4 7 3t3 -6v-102q0 -6 -1 -8.5t-5 -6.5q-15 -16 -34 -25.5t-43 -9.5z" />
      <glyph d="M248 -10q-78 0 -131 33t-76 103q-5 13 -8 28.5t-5 39t-3 58.5t-1 88t1 88t3 58.5t5 38.5t8 29q23 70 76 103t131 33t131 -33t76 -103q4 -14 7.5 -29t5.5 -38.5t3 -58.5t1 -88t-1 -88t-3 -58.5t-5.5 -39t-7.5 -28.5q-23 -70 -76 -103t-131 -33zM248 158q20 0 26 18
q1 3 2 9t1.5 22.5t0.5 47.5v85v85t-0.5 47.5t-1.5 22.5t-2 9q-6 18 -26 18t-26 -18q-1 -3 -2 -9t-1.5 -22.5t-0.5 -47.5v-85v-85t0.5 -47.5t1.5 -22.5t2 -9q6 -18 26 -18zM194 738q-11 0 -20 10l-117 132q-3 4 -1.5 7t6.5 3h143q10 0 17 -10l95 -132q3 -4 1.5 -7t-6.5 -3
h-118z" />
      <glyph d="M248 -10q-78 0 -131 33t-76 103q-5 13 -8 28.5t-5 39t-3 58.5t-1 88t1 88t3 58.5t5 38.5t8 29q23 70 76 103t131 33t131 -33t76 -103q4 -14 7.5 -29t5.5 -38.5t3 -58.5t1 -88t-1 -88t-3 -58.5t-5.5 -39t-7.5 -28.5q-23 -70 -76 -103t-131 -33zM248 158q20 0 26 18
q1 3 2 9t1.5 22.5t0.5 47.5v85v85t-0.5 47.5t-1.5 22.5t-2 9q-6 18 -26 18t-26 -18q-1 -3 -2 -9t-1.5 -22.5t-0.5 -47.5v-85v-85t0.5 -47.5t1.5 -22.5t2 -9q6 -18 26 -18zM179 738q-5 0 -6.5 3t1.5 7l95 132q7 10 17 10h143q5 0 6.5 -3t-1.5 -7l-117 -132q-9 -10 -20 -10
h-118z" />
      <glyph d="M248 -10q-78 0 -131 33t-76 103q-5 13 -8 28.5t-5 39t-3 58.5t-1 88t1 88t3 58.5t5 38.5t8 29q23 70 76 103t131 33t131 -33t76 -103q4 -14 7.5 -29t5.5 -38.5t3 -58.5t1 -88t-1 -88t-3 -58.5t-5.5 -39t-7.5 -28.5q-23 -70 -76 -103t-131 -33zM248 158q20 0 26 18
q1 3 2 9t1.5 22.5t0.5 47.5v85v85t-0.5 47.5t-1.5 22.5t-2 9q-6 18 -26 18t-26 -18q-1 -3 -2 -9t-1.5 -22.5t-0.5 -47.5v-85v-85t0.5 -47.5t1.5 -22.5t2 -9q6 -18 26 -18zM315 734q-10 0 -19 10l-47 55h-2l-47 -55q-9 -10 -19 -10h-92q-5 0 -6 3t2 7l97 144q7 10 16 10h100
q9 0 16 -10l97 -144q3 -4 2 -7t-6 -3h-92z" />
      <glyph d="M248 -10q-78 0 -131 33t-76 103q-5 13 -8 28.5t-5 39t-3 58.5t-1 88t1 88t3 58.5t5 38.5t8 29q23 70 76 103t131 33t131 -33t76 -103q4 -14 7.5 -29t5.5 -38.5t3 -58.5t1 -88t-1 -88t-3 -58.5t-5.5 -39t-7.5 -28.5q-23 -70 -76 -103t-131 -33zM248 158q20 0 26 18
q1 3 2 9t1.5 22.5t0.5 47.5v85v85t-0.5 47.5t-1.5 22.5t-2 9q-6 18 -26 18t-26 -18q-1 -3 -2 -9t-1.5 -22.5t-0.5 -47.5v-85v-85t0.5 -47.5t1.5 -22.5t2 -9q6 -18 26 -18zM308 732q-20 0 -35 6.5t-29 14.5q-13 8 -26.5 13.5t-30.5 5.5q-23 0 -39 -9t-33 -26q-4 -4 -7 -3
t-3 6v102q0 6 1 8.5t5 6.5q15 16 34 25.5t43 9.5q20 0 35 -6.5t29 -14.5q13 -8 26.5 -13.5t30.5 -5.5q23 0 39 9t33 26q4 4 7 3t3 -6v-102q0 -6 -1 -8.5t-5 -6.5q-15 -16 -34 -25.5t-43 -9.5z" />
      <glyph d="M248 -10q-78 0 -131 33t-76 103q-5 13 -8 28.5t-5 39t-3 58.5t-1 88t1 88t3 58.5t5 38.5t8 29q23 70 76 103t131 33t131 -33t76 -103q4 -14 7.5 -29t5.5 -38.5t3 -58.5t1 -88t-1 -88t-3 -58.5t-5.5 -39t-7.5 -28.5q-23 -70 -76 -103t-131 -33zM248 158q20 0 26 18
q1 3 2 9t1.5 22.5t0.5 47.5v85v85t-0.5 47.5t-1.5 22.5t-2 9q-6 18 -26 18t-26 -18q-1 -3 -2 -9t-1.5 -22.5t-0.5 -47.5v-85v-85t0.5 -47.5t1.5 -22.5t2 -9q6 -18 26 -18zM280 739q-10 0 -10 10v124q0 10 10 10h106q10 0 10 -10v-124q0 -10 -10 -10h-106zM110 739
q-10 0 -10 10v124q0 10 10 10h106q10 0 10 -10v-124q0 -10 -10 -10h-106z" />
      <glyph d="M340 89q-8 -8 -15 0l-91 91q-4 4 -8 0l-91 -91q-8 -8 -15 0l-77 77q-8 7 0 15l91 91q4 4 0 8l-91 91q-8 7 0 15l77 77q7 7 15 0l91 -91q4 -4 8 0l91 91q7 7 15 0l77 -77q7 -8 0 -15l-91 -91q-4 -4 0 -8l91 -91q7 -8 0 -15z" />
      <glyph d="M11 -30q-5 0 -6 3t1 7l53 104q-11 18 -18 42q-5 13 -8 28.5t-5 39t-3 58.5t-1 88t1 88t3 58.5t5 38.5t8 29q23 70 76 103t131 33q60 0 106 -20l16 30q4 6 7 8t11 2h97q5 0 6 -3t-1 -7l-54 -104q11 -18 19 -42q4 -14 7.5 -29t5.5 -38.5t3 -58.5t1 -88t-1 -88t-3 -58.5
t-5.5 -39t-7.5 -28.5q-23 -70 -76 -103t-131 -33q-59 0 -107 20l-15 -30q-4 -6 -7 -8t-11 -2h-97zM248 158q20 0 26 18q1 3 2 9t1.5 22.5t0.5 47.5v85v85t-0.5 47.5t-1.5 22.5t-2 9q-6 18 -26 18t-26 -18q-1 -3 -2 -9t-1.5 -22.5t-0.5 -47.5v-85v-85t0.5 -47.5t1.5 -22.5
t2 -9q6 -18 26 -18z" />
      <glyph d="M245 -10q-100 0 -159.5 55.5t-59.5 165.5v459q0 10 10 10h170q10 0 10 -10v-479q0 -33 29 -33t29 33v479q0 10 10 10h170q10 0 10 -10v-459q0 -110 -59.5 -165.5t-159.5 -55.5zM201 738q-11 0 -20 10l-117 132q-3 4 -1.5 7t6.5 3h143q10 0 17 -10l95 -132q3 -4 1.5 -7
t-6.5 -3h-118z" />
      <glyph d="M245 -10q-100 0 -159.5 55.5t-59.5 165.5v459q0 10 10 10h170q10 0 10 -10v-479q0 -33 29 -33t29 33v479q0 10 10 10h170q10 0 10 -10v-459q0 -110 -59.5 -165.5t-159.5 -55.5zM174 738q-5 0 -6.5 3t1.5 7l95 132q7 10 17 10h143q5 0 6.5 -3t-1.5 -7l-117 -132
q-9 -10 -20 -10h-118z" />
      <glyph d="M245 -10q-100 0 -159.5 55.5t-59.5 165.5v459q0 10 10 10h170q10 0 10 -10v-479q0 -33 29 -33t29 33v479q0 10 10 10h170q10 0 10 -10v-459q0 -110 -59.5 -165.5t-159.5 -55.5zM312 734q-10 0 -19 10l-47 55h-2l-47 -55q-9 -10 -19 -10h-92q-5 0 -6 3t2 7l97 144
q7 10 16 10h100q9 0 16 -10l97 -144q3 -4 2 -7t-6 -3h-92z" />
      <glyph d="M245 -10q-100 0 -159.5 55.5t-59.5 165.5v459q0 10 10 10h170q10 0 10 -10v-479q0 -33 29 -33t29 33v479q0 10 10 10h170q10 0 10 -10v-459q0 -110 -59.5 -165.5t-159.5 -55.5zM277 739q-10 0 -10 10v124q0 10 10 10h106q10 0 10 -10v-124q0 -10 -10 -10h-106zM107 739
q-10 0 -10 10v124q0 10 10 10h106q10 0 10 -10v-124q0 -10 -10 -10h-106z" />
      <glyph d="M152 0q-10 0 -10 10v237l-137 423q-3 10 8 10h167q10 0 12 -10l45 -218h4l43 218q2 10 12 10h165q11 0 8 -10l-137 -423v-237q0 -10 -10 -10h-170zM174 738q-5 0 -6.5 3t1.5 7l95 132q7 10 17 10h143q5 0 6.5 -3t-1.5 -7l-117 -132q-9 -10 -20 -10h-118z" />
      <glyph d="M38 0q-10 0 -10 10v660q0 10 10 10h170q10 0 10 -10v-91q0 -6 6 -6h30q49 0 89 -14t68.5 -41.5t44 -70t15.5 -99.5q0 -59 -17 -101.5t-46.5 -70t-69 -40.5t-84.5 -13h-30q-6 0 -6 -6v-107q0 -10 -10 -10h-170zM239 279q22 0 32 13.5t10 55.5t-10 55.5t-32 13.5h-15
q-6 0 -6 -6v-126q0 -6 6 -6h15z" />
      <glyph d="M248 -6q-10 0 -10 10v128q0 10 10 10h5q18 0 23 14q1 3 1.5 6t1 10.5t0.5 21v36.5v36.5t-0.5 21t-1 10.5t-1.5 6q-5 14 -23 14h-5q-10 0 -10 10v128q0 10 10 10h4q13 0 16 12q3 9 3 26q0 40 -32 40q-33 0 -33 -39v-495q0 -10 -10 -10h-160q-10 0 -10 10v488
q0 98 57.5 145t156.5 47q100 0 155.5 -48.5t55.5 -129.5q0 -37 -12 -66t-37 -48v-2q17 -11 28.5 -26t18.5 -36q5 -16 7.5 -38t2.5 -66q0 -29 -1 -50t-2.5 -36t-3.5 -25.5t-5 -19.5q-19 -59 -66.5 -82t-125.5 -23h-7z" />
      <glyph d="M235 0q-10 0 -10 10v24h-1q-11 -21 -36 -32.5t-57 -11.5q-24 0 -45.5 8t-37 25.5t-25 46t-9.5 69.5q0 47 15 77.5t38.5 48t53 24.5t58.5 7h40q6 0 6 6v18q0 18 -11.5 27t-43.5 9q-26 0 -46.5 -7t-34.5 -16q-12 -8 -15 2l-45 113q-4 11 5 16q30 17 71.5 26.5t92.5 9.5
q57 0 94.5 -11.5t60 -34.5t32 -56.5t9.5 -77.5v-310q0 -10 -10 -10h-149zM197 117q28 0 28 38v32q0 6 -6 6h-14q-35 0 -35 -40q0 -36 27 -36zM168 540q-11 0 -18 10l-100 144q-3 4 -1.5 7t6.5 3h144q10 0 16 -10l78 -144q5 -10 -6 -10h-119z" />
      <glyph d="M235 0q-10 0 -10 10v24h-1q-11 -21 -36 -32.5t-57 -11.5q-24 0 -45.5 8t-37 25.5t-25 46t-9.5 69.5q0 47 15 77.5t38.5 48t53 24.5t58.5 7h40q6 0 6 6v18q0 18 -11.5 27t-43.5 9q-26 0 -46.5 -7t-34.5 -16q-12 -8 -15 2l-45 113q-4 11 5 16q30 17 71.5 26.5t92.5 9.5
q57 0 94.5 -11.5t60 -34.5t32 -56.5t9.5 -77.5v-310q0 -10 -10 -10h-149zM197 117q28 0 28 38v32q0 6 -6 6h-14q-35 0 -35 -40q0 -36 27 -36zM134 540q-11 0 -6 10l78 144q6 10 16 10h144q5 0 6.5 -3t-1.5 -7l-100 -144q-8 -10 -18 -10h-119z" />
      <glyph d="M235 0q-10 0 -10 10v24h-1q-11 -21 -36 -32.5t-57 -11.5q-24 0 -45.5 8t-37 25.5t-25 46t-9.5 69.5q0 47 15 77.5t38.5 48t53 24.5t58.5 7h40q6 0 6 6v18q0 18 -11.5 27t-43.5 9q-26 0 -46.5 -7t-34.5 -16q-12 -8 -15 2l-45 113q-4 11 5 16q30 17 71.5 26.5t92.5 9.5
q57 0 94.5 -11.5t60 -34.5t32 -56.5t9.5 -77.5v-310q0 -10 -10 -10h-149zM197 117q28 0 28 38v32q0 6 -6 6h-14q-35 0 -35 -40q0 -36 27 -36zM278 538q-10 0 -19 10l-47 55h-2l-47 -55q-9 -10 -19 -10h-92q-5 0 -6 3t2 7l97 144q7 10 16 10h100q9 0 16 -10l97 -144
q3 -4 2 -7t-6 -3h-92z" />
      <glyph d="M235 0q-10 0 -10 10v24h-1q-11 -21 -36 -32.5t-57 -11.5q-24 0 -45.5 8t-37 25.5t-25 46t-9.5 69.5q0 47 15 77.5t38.5 48t53 24.5t58.5 7h40q6 0 6 6v18q0 18 -11.5 27t-43.5 9q-26 0 -46.5 -7t-34.5 -16q-12 -8 -15 2l-45 113q-4 11 5 16q30 17 71.5 26.5t92.5 9.5
q57 0 94.5 -11.5t60 -34.5t32 -56.5t9.5 -77.5v-310q0 -10 -10 -10h-149zM197 117q28 0 28 38v32q0 6 -6 6h-14q-35 0 -35 -40q0 -36 27 -36zM271 538q-20 0 -35 6.5t-29 14.5q-13 8 -26.5 13.5t-30.5 5.5q-23 0 -39 -9t-33 -26q-4 -4 -7 -3t-3 6v102q0 6 1 8.5t5 6.5
q15 16 34 25.5t43 9.5q20 0 35 -6.5t29 -14.5q13 -8 26.5 -13.5t30.5 -5.5q23 0 39 9t33 26q4 4 7 3t3 -6v-102q0 -6 -1 -8.5t-5 -6.5q-15 -16 -34 -25.5t-43 -9.5z" />
      <glyph d="M235 0q-10 0 -10 10v24h-1q-11 -21 -36 -32.5t-57 -11.5q-24 0 -45.5 8t-37 25.5t-25 46t-9.5 69.5q0 47 15 77.5t38.5 48t53 24.5t58.5 7h40q6 0 6 6v18q0 18 -11.5 27t-43.5 9q-26 0 -46.5 -7t-34.5 -16q-12 -8 -15 2l-45 113q-4 11 5 16q30 17 71.5 26.5t92.5 9.5
q57 0 94.5 -11.5t60 -34.5t32 -56.5t9.5 -77.5v-310q0 -10 -10 -10h-149zM197 117q28 0 28 38v32q0 6 -6 6h-14q-35 0 -35 -40q0 -36 27 -36zM243 538q-10 0 -10 10v124q0 10 10 10h106q10 0 10 -10v-124q0 -10 -10 -10h-106zM73 538q-10 0 -10 10v124q0 10 10 10h106
q10 0 10 -10v-124q0 -10 -10 -10h-106z" />
      <glyph d="M235 0q-10 0 -10 10v24h-1q-11 -21 -36 -32.5t-57 -11.5q-24 0 -45.5 8t-37 25.5t-25 46t-9.5 69.5q0 47 15 77.5t38.5 48t53 24.5t58.5 7h40q6 0 6 6v18q0 18 -11.5 27t-43.5 9q-26 0 -46.5 -7t-34.5 -16q-12 -8 -15 2l-45 113q-4 11 5 16q30 17 71.5 26.5t92.5 9.5
q57 0 94.5 -11.5t60 -34.5t32 -56.5t9.5 -77.5v-310q0 -10 -10 -10h-149zM197 117q28 0 28 38v32q0 6 -6 6h-14q-35 0 -35 -40q0 -36 27 -36zM211 521q-48 0 -79 30t-31 78t31 78t79 30t79 -30t31 -78t-31 -78t-79 -30zM211 588q17 0 28 11.5t11 29.5t-11 29.5t-28 11.5
t-28 -11.5t-11 -29.5t11 -29.5t28 -11.5z" />
      <glyph d="M420 -10q-42 0 -78 13.5t-59 36.5h-2q-23 -26 -51.5 -38t-75.5 -12q-63 0 -101.5 36t-38.5 113q0 47 15 77.5t38.5 48t53 24.5t58.5 7h40q6 0 6 6v18q0 18 -11.5 27t-43.5 9q-26 0 -46.5 -7t-34.5 -16q-12 -8 -15 2l-45 113q-4 11 5 16q30 17 71.5 26.5t92.5 9.5
q75 0 119 -22h2q41 22 101 22q73 0 118 -30.5t63 -86.5q4 -12 6.5 -24t4.5 -31.5t3 -49t1 -75.5q0 -10 -10 -10h-198q-6 0 -6 -6q0 -22 0.5 -28.5t2.5 -11.5q2 -8 8 -11t13 -3q19 0 28 24q3 9 12 8l137 -28q9 -1 7 -12q-14 -69 -65 -102t-125 -33zM444 296q6 0 6 6
q0 29 -0.5 38.5t-2.5 14.5q-5 15 -21 15q-17 0 -21 -15q-2 -5 -2.5 -14.5t-0.5 -38.5q0 -6 6 -6h36zM197 117q28 0 28 38v32q0 6 -6 6h-14q-35 0 -35 -40q0 -36 27 -36z" />
      <glyph d="M138 0q-39 11 -66.5 37t-41.5 70q-8 23 -11 54.5t-3 83.5t3 83.5t11 54.5q20 61 66 89t114 28q81 0 132 -40t57 -116q0 -9 -8 -12l-140 -24q-5 -1 -8.5 1t-3.5 8q0 20 -5.5 27.5t-15.5 7.5q-15 0 -19 -13q-1 -2 -1.5 -6t-1 -13.5t-0.5 -27v-47.5v-47.5t0.5 -27.5t1 -13.5
t1.5 -5.5q4 -13 19 -13q10 0 15.5 7.5t5.5 27.5q0 6 3.5 8t8.5 1l140 -24q8 -3 8 -12q-5 -60 -38.5 -97.5t-88.5 -51.5l-58 -159q-4 -10 -15 -10h-126q-11 0 -6 10z" />
      <glyph d="M212 -10q-73 0 -118 30.5t-63 86.5q-4 12 -6.5 24t-4.5 28t-3 36.5t-1 49.5q0 28 1 49t3 37t4.5 28t6.5 24q18 56 63 86.5t118 30.5t118 -30.5t63 -86.5q4 -12 6.5 -24t4.5 -31.5t3 -49t1 -75.5q0 -10 -10 -10h-198q-6 0 -6 -6q0 -22 0.5 -28.5t2.5 -11.5q2 -8 8 -11
t13 -3q19 0 28 24q3 9 12 8l137 -28q9 -1 7 -12q-14 -69 -65 -102t-125 -33zM236 296q6 0 6 6q0 29 -0.5 38.5t-2.5 14.5q-5 15 -21 15q-17 0 -21 -15q-2 -5 -2.5 -14.5t-0.5 -38.5q0 -6 6 -6h36zM162 540q-11 0 -18 10l-100 144q-3 4 -1.5 7t6.5 3h144q10 0 16 -10l78 -144
q5 -10 -6 -10h-119z" />
      <glyph d="M212 -10q-73 0 -118 30.5t-63 86.5q-4 12 -6.5 24t-4.5 28t-3 36.5t-1 49.5q0 28 1 49t3 37t4.5 28t6.5 24q18 56 63 86.5t118 30.5t118 -30.5t63 -86.5q4 -12 6.5 -24t4.5 -31.5t3 -49t1 -75.5q0 -10 -10 -10h-198q-6 0 -6 -6q0 -22 0.5 -28.5t2.5 -11.5q2 -8 8 -11
t13 -3q19 0 28 24q3 9 12 8l137 -28q9 -1 7 -12q-14 -69 -65 -102t-125 -33zM236 296q6 0 6 6q0 29 -0.5 38.5t-2.5 14.5q-5 15 -21 15q-17 0 -21 -15q-2 -5 -2.5 -14.5t-0.5 -38.5q0 -6 6 -6h36zM138 540q-11 0 -6 10l78 144q6 10 16 10h144q5 0 6.5 -3t-1.5 -7l-100 -144
q-8 -10 -18 -10h-119z" />
      <glyph d="M212 -10q-73 0 -118 30.5t-63 86.5q-4 12 -6.5 24t-4.5 28t-3 36.5t-1 49.5q0 28 1 49t3 37t4.5 28t6.5 24q18 56 63 86.5t118 30.5t118 -30.5t63 -86.5q4 -12 6.5 -24t4.5 -31.5t3 -49t1 -75.5q0 -10 -10 -10h-198q-6 0 -6 -6q0 -22 0.5 -28.5t2.5 -11.5q2 -8 8 -11
t13 -3q19 0 28 24q3 9 12 8l137 -28q9 -1 7 -12q-14 -69 -65 -102t-125 -33zM236 296q6 0 6 6q0 29 -0.5 38.5t-2.5 14.5q-5 15 -21 15q-17 0 -21 -15q-2 -5 -2.5 -14.5t-0.5 -38.5q0 -6 6 -6h36zM280 538q-10 0 -19 10l-47 55h-2l-47 -55q-9 -10 -19 -10h-92q-5 0 -6 3t2 7
l97 144q7 10 16 10h100q9 0 16 -10l97 -144q3 -4 2 -7t-6 -3h-92z" />
      <glyph d="M212 -10q-73 0 -118 30.5t-63 86.5q-4 12 -6.5 24t-4.5 28t-3 36.5t-1 49.5q0 28 1 49t3 37t4.5 28t6.5 24q18 56 63 86.5t118 30.5t118 -30.5t63 -86.5q4 -12 6.5 -24t4.5 -31.5t3 -49t1 -75.5q0 -10 -10 -10h-198q-6 0 -6 -6q0 -22 0.5 -28.5t2.5 -11.5q2 -8 8 -11
t13 -3q19 0 28 24q3 9 12 8l137 -28q9 -1 7 -12q-14 -69 -65 -102t-125 -33zM236 296q6 0 6 6q0 29 -0.5 38.5t-2.5 14.5q-5 15 -21 15q-17 0 -21 -15q-2 -5 -2.5 -14.5t-0.5 -38.5q0 -6 6 -6h36zM245 538q-10 0 -10 10v124q0 10 10 10h106q10 0 10 -10v-124q0 -10 -10 -10
h-106zM75 538q-10 0 -10 10v124q0 10 10 10h106q10 0 10 -10v-124q0 -10 -10 -10h-106z" />
      <glyph d="M36 0q-10 0 -10 10v470q0 10 10 10h160q10 0 10 -10v-470q0 -10 -10 -10h-160zM63 540q-11 0 -18 10l-100 144q-3 4 -1.5 7t6.5 3h144q10 0 16 -10l78 -144q5 -10 -6 -10h-119z" />
      <glyph d="M36 0q-10 0 -10 10v470q0 10 10 10h160q10 0 10 -10v-470q0 -10 -10 -10h-160zM55 540q-11 0 -6 10l78 144q6 10 16 10h144q5 0 6.5 -3t-1.5 -7l-100 -144q-8 -10 -18 -10h-119z" />
      <glyph d="M36 0q-10 0 -10 10v470q0 10 10 10h160q10 0 10 -10v-470q0 -10 -10 -10h-160zM184 538q-10 0 -19 10l-47 55h-2l-47 -55q-9 -10 -19 -10h-92q-5 0 -6 3t2 7l97 144q7 10 16 10h100q9 0 16 -10l97 -144q3 -4 2 -7t-6 -3h-92z" />
      <glyph d="M36 0q-10 0 -10 10v470q0 10 10 10h160q10 0 10 -10v-470q0 -10 -10 -10h-160zM149 538q-10 0 -10 10v124q0 10 10 10h106q10 0 10 -10v-124q0 -10 -10 -10h-106zM-21 538q-10 0 -10 10v124q0 10 10 10h106q10 0 10 -10v-124q0 -10 -10 -10h-106z" />
      <glyph d="M311 547l36 -66q38 -69 56.5 -129t18.5 -122q0 -40 -3.5 -67.5t-11.5 -50.5q-40 -122 -188 -122t-188 122q-8 23 -11.5 47.5t-3.5 56.5t3.5 56.5t11.5 47.5q16 49 50.5 82.5t86.5 33.5q11 0 19 -2.5t14 -6.5h1l-39 72l-70 -22q-10 -3 -13 6l-22 72q-3 10 6 13l54 17
l-44 85q-4 10 6 10h148q10 0 16 -10l20 -38l63 21q10 3 13 -6l24 -72q3 -9 -6 -13zM219 138q16 0 20 14q1 2 1.5 5.5t1 10.5t0.5 18.5v29.5v29.5t-0.5 18.5t-1 10.5t-1.5 5.5q-4 14 -20 14t-20 -14q-1 -2 -1.5 -5.5t-1 -10.5t-0.5 -18.5v-29.5v-29.5t0.5 -18.5t1 -10.5
t1.5 -5.5q4 -14 20 -14z" />
      <glyph d="M258 0q-10 0 -10 10v308q0 30 -21 30t-21 -30v-308q0 -10 -10 -10h-160q-10 0 -10 10v470q0 10 10 10h158q10 0 10 -10v-36h1q13 25 39 40.5t65 15.5q67 0 93 -36.5t26 -112.5v-341q0 -10 -10 -10h-160zM288 538q-20 0 -35 6.5t-29 14.5q-13 8 -26.5 13.5t-30.5 5.5
q-23 0 -39 -9t-33 -26q-4 -4 -7 -3t-3 6v102q0 6 1 8.5t5 6.5q15 16 34 25.5t43 9.5q20 0 35 -6.5t29 -14.5q13 -8 26.5 -13.5t30.5 -5.5q23 0 39 9t33 26q4 4 7 3t3 -6v-102q0 -6 -1 -8.5t-5 -6.5q-15 -16 -34 -25.5t-43 -9.5z" />
      <glyph d="M219 -10q-148 0 -188 122q-8 23 -11.5 51t-3.5 82t3.5 82t11.5 51q40 122 188 122t188 -122q8 -23 11.5 -51t3.5 -82t-3.5 -82t-11.5 -51q-40 -122 -188 -122zM219 138q16 0 20 14q1 2 1.5 5.5t1 13.5t0.5 27.5v46.5v46.5t-0.5 27.5t-1 13.5t-1.5 5.5q-4 14 -20 14
t-20 -14q-1 -2 -1.5 -5.5t-1 -13.5t-0.5 -27.5v-46.5v-46.5t0.5 -27.5t1 -13.5t1.5 -5.5q4 -14 20 -14zM165 540q-11 0 -18 10l-100 144q-3 4 -1.5 7t6.5 3h144q10 0 16 -10l78 -144q5 -10 -6 -10h-119z" />
      <glyph d="M219 -10q-148 0 -188 122q-8 23 -11.5 51t-3.5 82t3.5 82t11.5 51q40 122 188 122t188 -122q8 -23 11.5 -51t3.5 -82t-3.5 -82t-11.5 -51q-40 -122 -188 -122zM219 138q16 0 20 14q1 2 1.5 5.5t1 13.5t0.5 27.5v46.5v46.5t-0.5 27.5t-1 13.5t-1.5 5.5q-4 14 -20 14
t-20 -14q-1 -2 -1.5 -5.5t-1 -13.5t-0.5 -27.5v-46.5v-46.5t0.5 -27.5t1 -13.5t1.5 -5.5q4 -14 20 -14zM151 540q-11 0 -6 10l78 144q6 10 16 10h144q5 0 6.5 -3t-1.5 -7l-100 -144q-8 -10 -18 -10h-119z" />
      <glyph d="M219 -10q-148 0 -188 122q-8 23 -11.5 51t-3.5 82t3.5 82t11.5 51q40 122 188 122t188 -122q8 -23 11.5 -51t3.5 -82t-3.5 -82t-11.5 -51q-40 -122 -188 -122zM219 138q16 0 20 14q1 2 1.5 5.5t1 13.5t0.5 27.5v46.5v46.5t-0.5 27.5t-1 13.5t-1.5 5.5q-4 14 -20 14
t-20 -14q-1 -2 -1.5 -5.5t-1 -13.5t-0.5 -27.5v-46.5v-46.5t0.5 -27.5t1 -13.5t1.5 -5.5q4 -14 20 -14zM287 538q-10 0 -19 10l-47 55h-2l-47 -55q-9 -10 -19 -10h-92q-5 0 -6 3t2 7l97 144q7 10 16 10h100q9 0 16 -10l97 -144q3 -4 2 -7t-6 -3h-92z" />
      <glyph d="M219 -10q-148 0 -188 122q-8 23 -11.5 51t-3.5 82t3.5 82t11.5 51q40 122 188 122t188 -122q8 -23 11.5 -51t3.5 -82t-3.5 -82t-11.5 -51q-40 -122 -188 -122zM219 138q16 0 20 14q1 2 1.5 5.5t1 13.5t0.5 27.5v46.5v46.5t-0.5 27.5t-1 13.5t-1.5 5.5q-4 14 -20 14
t-20 -14q-1 -2 -1.5 -5.5t-1 -13.5t-0.5 -27.5v-46.5v-46.5t0.5 -27.5t1 -13.5t1.5 -5.5q4 -14 20 -14zM280 538q-20 0 -35 6.5t-29 14.5q-13 8 -26.5 13.5t-30.5 5.5q-23 0 -39 -9t-33 -26q-4 -4 -7 -3t-3 6v102q0 6 1 8.5t5 6.5q15 16 34 25.5t43 9.5q20 0 35 -6.5
t29 -14.5q13 -8 26.5 -13.5t30.5 -5.5q23 0 39 9t33 26q4 4 7 3t3 -6v-102q0 -6 -1 -8.5t-5 -6.5q-15 -16 -34 -25.5t-43 -9.5z" />
      <glyph d="M219 -10q-148 0 -188 122q-8 23 -11.5 51t-3.5 82t3.5 82t11.5 51q40 122 188 122t188 -122q8 -23 11.5 -51t3.5 -82t-3.5 -82t-11.5 -51q-40 -122 -188 -122zM219 138q16 0 20 14q1 2 1.5 5.5t1 13.5t0.5 27.5v46.5v46.5t-0.5 27.5t-1 13.5t-1.5 5.5q-4 14 -20 14
t-20 -14q-1 -2 -1.5 -5.5t-1 -13.5t-0.5 -27.5v-46.5v-46.5t0.5 -27.5t1 -13.5t1.5 -5.5q4 -14 20 -14zM252 538q-10 0 -10 10v124q0 10 10 10h106q10 0 10 -10v-124q0 -10 -10 -10h-106zM82 538q-10 0 -10 10v124q0 10 10 10h106q10 0 10 -10v-124q0 -10 -10 -10h-106z" />
      <glyph d="M236 384q-35 0 -59.5 24.5t-24.5 59.5t24.5 59.5t59.5 24.5t59.5 -24.5t24.5 -59.5t-24.5 -59.5t-59.5 -24.5zM34 208q-10 0 -10 10v116q0 10 10 10h392q10 0 10 -10v-116q0 -10 -10 -10h-392zM236 0q-35 0 -59.5 24.5t-24.5 59.5t24.5 59.5t59.5 24.5t59.5 -24.5
t24.5 -59.5t-24.5 -59.5t-59.5 -24.5z" />
      <glyph d="M12 -30q-5 0 -6 3t1 7l49 81q-16 20 -25 51q-8 23 -11.5 51t-3.5 82t3.5 82t11.5 51q40 122 188 122q54 0 93 -16l15 26q7 10 18 10h81q5 0 6 -3t-1 -7l-49 -82q14 -19 25 -50q8 -23 11.5 -51t3.5 -82t-3.5 -82t-11.5 -51q-40 -122 -188 -122q-53 0 -93 15l-15 -25
q-7 -10 -18 -10h-81zM219 138q16 0 20 14q1 2 1.5 5.5t1 13.5t0.5 27.5v46.5v46.5t-0.5 27.5t-1 13.5t-1.5 5.5q-4 14 -20 14t-20 -14q-1 -2 -1.5 -5.5t-1 -13.5t-0.5 -27.5v-46.5v-46.5t0.5 -27.5t1 -13.5t1.5 -5.5q4 -14 20 -14z" />
      <glyph d="M259 0q-10 0 -10 10v36h-1q-13 -25 -39 -40.5t-65 -15.5q-66 0 -92.5 36.5t-26.5 112.5v341q0 10 10 10h160q10 0 10 -10v-308q0 -30 21 -30t21 30v308q0 10 10 10h160q10 0 10 -10v-470q0 -10 -10 -10h-158zM173 540q-11 0 -18 10l-100 144q-3 4 -1.5 7t6.5 3h144
q10 0 16 -10l78 -144q5 -10 -6 -10h-119z" />
      <glyph d="M259 0q-10 0 -10 10v36h-1q-13 -25 -39 -40.5t-65 -15.5q-66 0 -92.5 36.5t-26.5 112.5v341q0 10 10 10h160q10 0 10 -10v-308q0 -30 21 -30t21 30v308q0 10 10 10h160q10 0 10 -10v-470q0 -10 -10 -10h-158zM152 540q-11 0 -6 10l78 144q6 10 16 10h144q5 0 6.5 -3
t-1.5 -7l-100 -144q-8 -10 -18 -10h-119z" />
      <glyph d="M259 0q-10 0 -10 10v36h-1q-13 -25 -39 -40.5t-65 -15.5q-66 0 -92.5 36.5t-26.5 112.5v341q0 10 10 10h160q10 0 10 -10v-308q0 -30 21 -30t21 30v308q0 10 10 10h160q10 0 10 -10v-470q0 -10 -10 -10h-158zM294 538q-10 0 -19 10l-47 55h-2l-47 -55q-9 -10 -19 -10h-92
q-5 0 -6 3t2 7l97 144q7 10 16 10h100q9 0 16 -10l97 -144q3 -4 2 -7t-6 -3h-92z" />
      <glyph d="M259 0q-10 0 -10 10v36h-1q-13 -25 -39 -40.5t-65 -15.5q-66 0 -92.5 36.5t-26.5 112.5v341q0 10 10 10h160q10 0 10 -10v-308q0 -30 21 -30t21 30v308q0 10 10 10h160q10 0 10 -10v-470q0 -10 -10 -10h-158zM260 538q-10 0 -10 10v124q0 10 10 10h106q10 0 10 -10v-124
q0 -10 -10 -10h-106zM90 538q-10 0 -10 10v124q0 10 10 10h106q10 0 10 -10v-124q0 -10 -10 -10h-106z" />
      <glyph d="M61 -180q-10 0 -10 10v132q0 10 10 10h14q30 0 43.5 8.5t16.5 27.5l1 6l-131 466q-3 10 8 10h152q9 0 12 -10l36 -228h2l41 228q2 10 12 10h145q11 0 8 -10l-133 -487q-13 -50 -31 -83t-43.5 -53t-60 -28.5t-80.5 -8.5h-12zM151 540q-11 0 -6 10l78 144q6 10 16 10h144
q5 0 6.5 -3t-1.5 -7l-100 -144q-8 -10 -18 -10h-119z" />
      <glyph d="M36 -180q-10 0 -10 10v840q0 10 10 10h160q10 0 10 -10v-228h1q31 58 100 58q45 0 70 -17t39 -58q4 -12 7 -27t5 -36t3 -49.5t1 -67.5t-1 -67.5t-3 -49.5t-5 -36t-7 -27q-14 -41 -39 -58t-70 -17q-69 0 -100 58h-1v-218q0 -10 -10 -10h-160zM229 138q15 0 20 14
q1 3 1.5 6.5t1 13t0.5 27v46.5v46.5t-0.5 27t-1 13t-1.5 6.5q-5 14 -20 14t-20 -14q-1 -3 -1.5 -6.5t-1 -13t-0.5 -27v-46.5v-46.5t0.5 -27t1 -13t1.5 -6.5q5 -14 20 -14z" />
      <glyph d="M61 -180q-10 0 -10 10v132q0 10 10 10h14q30 0 43.5 8.5t16.5 27.5l1 6l-131 466q-3 10 8 10h152q9 0 12 -10l36 -228h2l41 228q2 10 12 10h145q11 0 8 -10l-133 -487q-13 -50 -31 -83t-43.5 -53t-60 -28.5t-80.5 -8.5h-12zM246 538q-10 0 -10 10v124q0 10 10 10h106
q10 0 10 -10v-124q0 -10 -10 -10h-106zM76 538q-10 0 -10 10v124q0 10 10 10h106q10 0 10 -10v-124q0 -10 -10 -10h-106z" />
      <glyph />
      <glyph />
      <glyph d="M204 738q-11 0 -20 10l-117 132q-3 4 -1.5 7t6.5 3h143q10 0 17 -10l95 -132q3 -4 1.5 -7t-6.5 -3h-118z" />
      <glyph d="M138 738q-5 0 -6.5 3t1.5 7l95 132q7 10 17 10h143q5 0 6.5 -3t-1.5 -7l-117 -132q-9 -10 -20 -10h-118z" />
      <glyph d="M297 734q-10 0 -19 10l-47 55h-2l-47 -55q-9 -10 -19 -10h-92q-5 0 -6 3t2 7l97 144q7 10 16 10h100q9 0 16 -10l97 -144q3 -4 2 -7t-6 -3h-92z" />
      <glyph d="M180 726q-9 0 -16 10l-97 144q-3 4 -2 7t6 3h92q10 0 19 -10l47 -55h2l47 55q9 10 19 10h92q5 0 6 -3t-2 -7l-97 -144q-7 -10 -16 -10h-100z" />
      <glyph d="M178 454q-11 0 -11 11v205q0 10 10 10h107q10 0 10 -10v-100q0 -16 -10 -26l-94 -85q-5 -5 -12 -5z" />
      <glyph d="M290 732q-20 0 -35 6.5t-29 14.5q-13 8 -26.5 13.5t-30.5 5.5q-23 0 -39 -9t-33 -26q-4 -4 -7 -3t-3 6v102q0 6 1 8.5t5 6.5q15 16 34 25.5t43 9.5q20 0 35 -6.5t29 -14.5q13 -8 26.5 -13.5t30.5 -5.5q23 0 39 9t33 26q4 4 7 3t3 -6v-102q0 -6 -1 -8.5t-5 -6.5
q-15 -16 -34 -25.5t-43 -9.5z" />
      <glyph d="M262 739q-10 0 -10 10v124q0 10 10 10h106q10 0 10 -10v-124q0 -10 -10 -10h-106zM92 739q-10 0 -10 10v124q0 10 10 10h106q10 0 10 -10v-124q0 -10 -10 -10h-106z" />
      <glyph d="M96 749q-10 0 -10 10v106q0 10 10 10h268q10 0 10 -10v-106q0 -10 -10 -10h-268z" />
      <glyph d="M230 724q-36 0 -63.5 11.5t-47 31.5t-29.5 47.5t-10 59.5q0 11 14 11h69q12 0 16 -11q16 -38 51 -38t51 38q4 11 16 11h69q14 0 14 -11q0 -32 -10 -59.5t-29.5 -47.5t-47 -31.5t-63.5 -11.5z" />
      <glyph d="M230 702q-48 0 -79 30t-31 78t31 78t79 30t79 -30t31 -78t-31 -78t-79 -30zM230 769q17 0 28 11.5t11 29.5t-11 29.5t-28 11.5t-28 -11.5t-11 -29.5t11 -29.5t28 -11.5z" />
      <glyph d="M243 738q-11 0 -6 10l72 126q6 10 16 10h117q5 0 6 -3t-1 -7l-88 -126q-7 -10 -18 -10h-98zM74 738q-11 0 -6 10l72 126q6 10 16 10h117q5 0 6 -3t-1 -7l-88 -126q-7 -10 -18 -10h-98z" />
      <glyph d="M150 739q-10 0 -10 10v124q0 10 10 10h160q10 0 10 -10v-124q0 -10 -10 -10h-160z" />
      <glyph d="M173 -254q-11 0 -11 11v184q0 10 10 10h116q10 0 10 -10v-74q0 -16 -10 -26l-103 -90q-5 -5 -12 -5z" />
      <glyph d="M172 536q-10 0 -10 10v74q0 16 10 26l103 90q5 5 12 5q11 0 11 -11v-184q0 -10 -10 -10h-116z" />
      <glyph d="M12 0q-10 0 -7 10l150 660q2 10 12 10h198q10 0 12 -10l148 -660q3 -10 -8 -10h-505zM305 164q6 0 5 6l-42 272h-2l-45 -272q-2 -6 5 -6h79z" />
      <glyph d="M277 0q-10 0 -10 10v125q0 5 2.5 8.5t4.5 7.5q3 5 5 12.5t3 30t1.5 66t0.5 121.5q0 38 -0.5 60.5t-1 34.5t-1.5 17.5t-2 8.5q-7 20 -27 20t-27 -20q-1 -3 -2 -8.5t-1.5 -17.5t-1 -34.5t-0.5 -60.5q0 -78 0.5 -121.5t1.5 -66t3 -30t5 -12.5q2 -4 4.5 -7.5t2.5 -8.5v-125
q0 -10 -10 -10h-191q-10 0 -10 10v134q0 10 10 10h46v2q-14 12 -24.5 26.5t-17.5 38.5t-10.5 61t-3.5 93q0 40 1 67.5t3 47.5t5 34.5t8 28.5q44 137 209 137t209 -137q4 -14 7.5 -28.5t5.5 -34.5t3 -47.5t1 -67.5q0 -56 -3.5 -93t-10.5 -61t-17.5 -38.5t-24.5 -26.5v-2h46
q10 0 10 -10v-134q0 -10 -10 -10h-191z" />
      <glyph d="M258 0q-10 0 -10 10v36h-1q-6 -17 -16.5 -27.5t-24.5 -18.5v-170q0 -10 -10 -10h-160q-10 0 -10 10v650q0 10 10 10h160q10 0 10 -10v-309q0 -17 5 -24t16 -7t16 7t5 24v309q0 10 10 10h160q10 0 10 -10v-470q0 -10 -10 -10h-160z" />
      <glyph d="M230 -10q-75 0 -123 31.5t-68 91.5q-8 23 -11.5 53t-3.5 79t3.5 79t11.5 53q20 60 68 91.5t123 31.5t123 -31.5t68 -91.5q8 -23 11.5 -53t3.5 -79t-3.5 -79t-11.5 -53q-20 -60 -68 -91.5t-123 -31.5zM230 138q16 0 21 15q1 2 1.5 6t1 13.5t0.5 26.5v46v46t-0.5 26.5
t-1 13.5t-1.5 6q-5 15 -21 15q-17 0 -21 -15q-1 -2 -1.5 -6t-1 -13.5t-0.5 -26.5v-46v-46t0.5 -26.5t1 -13.5t1.5 -6q4 -15 21 -15z" />
      <glyph d="M178 0q-10 0 -10 10v301h-2l-92 -29q-14 -5 -14 9v143q0 10 9 14l93 38q4 2 8.5 3t10.5 1h157q10 0 10 -10v-470q0 -10 -10 -10h-160z" />
      <glyph d="M38 0q-10 0 -10 10v111q0 13 9 19l165 102q15 9 24.5 16.5t15 16t7 18.5t1.5 25q0 11 -3 20q-5 14 -21 14t-21 -14q-2 -5 -2.5 -12t-0.5 -24q0 -12 -12 -10l-152 15q-10 1 -10 12q0 14 2.5 32t7.5 34q18 55 65.5 85t125.5 30t125.5 -29.5t65.5 -84.5q5 -16 7.5 -31
t2.5 -37q0 -51 -20 -82t-58 -55l-64 -41v-2h132q10 0 10 -10v-118q0 -10 -10 -10h-382z" />
      <glyph d="M227 -190q-78 0 -125.5 31t-65.5 86q-5 16 -7.5 33t-2.5 33q0 11 10 12l152 15q12 2 12 -10q0 -19 0.5 -26t2.5 -12q5 -14 21 -14t21 14q2 5 2.5 13.5t0.5 37.5q0 23 -0.5 31.5t-2.5 13.5q-6 20 -37 20h-37q-10 0 -10 10v138q0 10 6 16l70 78v4h-191q-10 0 -10 10v136
q0 10 10 10h372q10 0 10 -10v-140q0 -11 -6 -17l-89 -99v-2q27 -8 49.5 -25t33.5 -52q4 -12 6 -22.5t3.5 -24t2 -31.5t0.5 -44q0 -35 -2.5 -57.5t-7.5 -38.5q-18 -55 -65.5 -86t-125.5 -31z" />
      <glyph d="M256 -180q-10 0 -10 10v164q0 6 -6 6h-215q-10 0 -10 10v150q0 5 2 11l98 311q3 8 10 8h157q10 0 7 -10l-96 -322v-2h47q6 0 6 6v81q0 10 10 10h148q10 0 10 -10v-81q0 -6 5 -6h21q10 0 10 -10v-136q0 -10 -10 -10h-20q-6 0 -6 -6v-164q0 -10 -10 -10h-148z" />
      <glyph d="M233 -190q-78 0 -125.5 31t-65.5 86q-5 16 -7.5 33t-2.5 31q0 11 10 12l152 15q12 2 12 -10q0 -17 0.5 -24t2.5 -12q5 -14 21 -14t21 14q1 4 2 15.5t1 52.5v33t-0.5 19t-1 10.5t-1.5 5.5q-5 14 -22 14q-21 0 -25 -21q-2 -10 -12 -10h-143q-9 0 -9 10v379q0 10 10 10h370
q10 0 10 -10v-136q0 -10 -10 -10h-216q-6 0 -6 -6v-86h2q11 8 29.5 15t50.5 7q54 0 89.5 -22t51.5 -71q3 -10 5.5 -21.5t4 -26.5t2.5 -35.5t1 -47.5q0 -26 -0.5 -43.5t-2 -30.5t-3 -22t-4.5 -17q-18 -55 -65.5 -86t-125.5 -31z" />
      <glyph d="M230 -10q-76 0 -125 30t-68 88q-5 16 -8 37t-3 58q0 33 2.5 59.5t8 49t13.5 43t19 41.5l139 275q4 9 16 9h160q5 0 7 -4t0 -9l-124 -255l2 -2q8 2 20 2q50 0 83.5 -27.5t49.5 -75.5q6 -18 9 -41t3 -65q0 -37 -3 -58t-8 -37q-19 -58 -68 -88t-125 -30zM230 138q16 0 21 14
q2 5 2.5 14t0.5 37t-0.5 37t-2.5 14q-5 14 -21 14t-21 -14q-2 -5 -2.5 -14t-0.5 -37t0.5 -37t2.5 -14q5 -14 21 -14z" />
      <glyph d="M101 -180q-11 0 -8 11l162 506v2h-68q-6 0 -6 -6v-42q0 -10 -10 -10h-130q-10 0 -10 10v189q0 10 10 10h385q10 0 10 -10v-124q0 -5 -0.5 -7.5t-1.5 -5.5l-159 -513q-3 -10 -13 -10h-161z" />
      <glyph d="M230 -10q-76 0 -125 30t-68 88q-5 16 -8 36.5t-3 53.5q0 32 2.5 51t8.5 37q9 28 24.5 44t29.5 24v2q-17 10 -32 28t-24 46t-9 66q0 43 11 76q19 58 68 88t125 30t125 -30t68 -88q11 -33 11 -76q0 -38 -9 -66t-24 -46t-32 -28v-2q14 -8 29.5 -24t24.5 -44q6 -18 8.5 -37
t2.5 -51q0 -33 -3 -53.5t-8 -36.5q-19 -58 -68 -88t-125 -30zM230 418q16 0 21 14q2 5 2.5 13.5t0.5 34.5t-0.5 34.5t-2.5 13.5q-5 14 -21 14t-21 -14q-2 -5 -2.5 -13.5t-0.5 -34.5t0.5 -34.5t2.5 -13.5q5 -14 21 -14zM230 138q16 0 21 14q2 5 2.5 14t0.5 38t-0.5 38
t-2.5 14q-5 14 -21 14t-21 -14q-2 -5 -2.5 -14t-0.5 -38t0.5 -38t2.5 -14q5 -14 21 -14z" />
      <glyph d="M81 -180q-5 0 -7 4t0 9l119 245l-2 2q-8 -2 -20 -2q-50 0 -83.5 27.5t-49.5 75.5q-6 18 -9 41t-3 65q0 37 3 58t8 37q19 58 68 88t125 30t125 -30t68 -88q5 -16 8 -37t3 -58q0 -33 -2.5 -59.5t-8 -49t-13.5 -43t-19 -41.5l-134 -265q-5 -9 -16 -9h-160zM230 222
q16 0 21 14q2 5 2.5 14t0.5 37t-0.5 37t-2.5 14q-5 14 -21 14t-21 -14q-2 -5 -2.5 -14t-0.5 -37t0.5 -37t2.5 -14q5 -14 21 -14z" />
      <glyph d="M40 114q-4 12 -7 27t-5 40t-3 63.5t-1 95.5t1 95.5t3 63.5t5 40t7 27q20 60 67.5 92t122.5 32t122.5 -32t67.5 -92q4 -12 7 -27t5 -40t3 -63.5t1 -95.5t-1 -95.5t-3 -63.5t-5 -40t-7 -27q-20 -60 -67.5 -92t-122.5 -32t-122.5 32t-67.5 92zM209 153q4 -15 21 -15
q16 0 21 15q1 2 1.5 7.5t1 24t0.5 54.5v101v100.5t-0.5 55t-1 24t-1.5 7.5q-5 15 -21 15q-17 0 -21 -15q-1 -2 -1.5 -7.5t-1 -24t-0.5 -55v-100.5v-101t0.5 -54.5t1 -24t1.5 -7.5z" />
      <glyph d="M112 483h-2l-84 -59q-4 -3 -7.5 -1.5t-3.5 8.5v163q0 8 7 14l89 66q7 6 14 6h157q10 0 10 -10v-660q0 -10 -10 -10h-160q-10 0 -10 10v473z" />
      <glyph d="M21 139q0 9 4 16l175 218q13 16 21.5 29t13 25.5t6.5 27.5t2 36q0 18 -0.5 25t-2.5 12q-5 14 -21 14t-21 -14q-2 -5 -2.5 -13.5t-0.5 -34.5q0 -12 -12 -10l-152 15q-10 1 -10 12q0 46 10 76q18 55 65.5 86t125.5 31t125.5 -31t65.5 -86q5 -16 7.5 -35t2.5 -47
q0 -57 -13.5 -98.5t-49.5 -84.5l-126 -150v-2h179q10 0 10 -10v-136q0 -10 -10 -10h-382q-10 0 -10 10v129z" />
      <glyph d="M31 107q-5 16 -7.5 32.5t-2.5 33.5q0 11 10 12l152 15q12 2 12 -10q0 -19 0.5 -26t2.5 -12q5 -14 21 -14t21 14q2 5 2.5 13.5t0.5 37.5q0 23 -0.5 33t-2.5 15q-5 17 -34 17h-16q-10 0 -10 10v139q0 10 10 10h21q24 0 29 15q2 4 2.5 12.5t0.5 36.5q0 18 -0.5 25t-2.5 12
q-5 14 -21 14t-21 -14q-2 -5 -2.5 -12t-0.5 -26q0 -12 -12 -10l-152 15q-10 1 -10 12q0 16 2.5 33t7.5 33q18 55 65.5 86t125.5 31t125.5 -31t65.5 -86q5 -16 7.5 -35t2.5 -47q0 -17 -2 -32.5t-7 -31.5q-15 -47 -60 -71v-2q23 -12 38 -28.5t23 -42.5q5 -14 6.5 -31.5
t1.5 -52.5t-2.5 -55.5t-7.5 -36.5q-18 -55 -65.5 -86t-125.5 -31t-125.5 31t-65.5 86z" />
      <glyph d="M34 107q-10 0 -10 10v151q0 5 2 11l123 393q3 8 10 8h157q10 0 7 -10l-121 -405v-2h47q6 0 6 6v81q0 10 10 10h146q10 0 10 -10v-81q0 -6 5 -6h21q10 0 10 -10v-136q0 -10 -10 -10h-20q-6 0 -6 -6v-91q0 -10 -10 -10h-146q-10 0 -10 10v91q0 6 -6 6h-215z" />
      <glyph d="M37 107q-5 16 -7.5 33t-2.5 32q0 11 10 12l152 15q12 2 12 -10q0 -18 0.5 -25t2.5 -12q5 -14 21 -14t21 14q1 2 1.5 5.5t1 11t0.5 20.5v36v35.5t-0.5 21t-1 11t-1.5 5.5q-5 14 -22 14q-21 0 -25 -21q-2 -10 -12 -10h-143q-9 0 -9 10v379q0 10 10 10h370q10 0 10 -10v-136
q0 -10 -10 -10h-216q-6 0 -6 -6v-86h2q11 8 29.5 15t50.5 7q54 0 89.5 -22t51.5 -71q3 -10 5.5 -21.5t4 -27t2.5 -37t1 -50.5q0 -27 -0.5 -46t-2 -32.5t-3 -22.5t-4.5 -17q-18 -55 -65.5 -86t-125.5 -31t-125.5 31t-65.5 86z" />
      <glyph d="M36 108q-5 16 -8 37t-3 58q0 33 2.5 59.5t8 49t13.5 43t19 41.5l139 275q4 9 16 9h160q5 0 7 -4t0 -9l-124 -255l2 -2q8 2 20 2q50 0 83.5 -27.5t49.5 -75.5q6 -18 9 -41t3 -65q0 -37 -3 -58t-8 -37q-19 -58 -68 -88t-125 -30t-125 30t-68 88zM208 152q5 -14 21 -14
t21 14q2 5 2.5 14t0.5 37t-0.5 37t-2.5 14q-5 14 -21 14t-21 -14q-2 -5 -2.5 -14t-0.5 -37t0.5 -37t2.5 -14z" />
      <glyph d="M245 527v2h-68q-6 0 -6 -6v-42q0 -10 -10 -10h-130q-10 0 -10 10v189q0 10 10 10h385q10 0 10 -10v-124q0 -5 -0.5 -7.5t-1.5 -5.5l-162 -523q-3 -10 -13 -10h-161q-11 0 -8 11z" />
      <glyph d="M36 108q-5 16 -8 36.5t-3 53.5q0 32 2.5 51t8.5 37q9 28 24.5 44t29.5 24v2q-17 10 -32 28t-24 46t-9 66q0 43 11 76q19 58 68 88t125 30t125 -30t68 -88q11 -33 11 -76q0 -38 -9 -66t-24 -46t-32 -28v-2q14 -8 29.5 -24t24.5 -44q6 -18 8.5 -37t2.5 -51q0 -33 -3 -53.5
t-8 -36.5q-19 -58 -68 -88t-125 -30t-125 30t-68 88zM229 418q16 0 21 14q2 5 2.5 13.5t0.5 34.5t-0.5 34.5t-2.5 13.5q-5 14 -21 14t-21 -14q-2 -5 -2.5 -13.5t-0.5 -34.5t0.5 -34.5t2.5 -13.5q5 -14 21 -14zM208 152q5 -14 21 -14t21 14q2 5 2.5 14t0.5 38t-0.5 38
t-2.5 14q-5 14 -21 14t-21 -14q-2 -5 -2.5 -14t-0.5 -38t0.5 -38t2.5 -14z" />
      <glyph d="M192 268l-2 2q-8 -2 -20 -2q-50 0 -83.5 27.5t-49.5 75.5q-6 18 -9 41t-3 65q0 37 3 58t8 37q19 58 68 88t125 30t125 -30t68 -88q5 -16 8 -37t3 -58q0 -33 -2.5 -59.5t-8 -49t-13.5 -43t-19 -41.5l-139 -275q-5 -9 -16 -9h-160q-5 0 -7 4t0 9zM229 412q16 0 21 14
q2 5 2.5 14t0.5 37t-0.5 37t-2.5 14q-5 14 -21 14t-21 -14q-2 -5 -2.5 -14t-0.5 -37t0.5 -37t2.5 -14q5 -14 21 -14z" />
      <glyph d="M267 -10q-78 0 -123 30t-64 89q-8 23 -11 50t-3 65q0 6 -6 6h-32q-10 0 -10 10v72q0 10 10 10h32q6 0 6 6v23q0 6 -6 6h-32q-10 0 -10 10v72q0 10 10 10h32q6 0 6 6q0 38 3 65.5t11 50.5q19 59 64 89t123 30q98 0 145 -44t52 -119q0 -11 -10 -12l-151 -23q-11 -2 -11 10
q-1 22 -6.5 31t-16.5 9q-14 0 -19 -14q-1 -3 -2 -7t-1.5 -11.5t-0.5 -20.5v-34q0 -6 6 -6h125q10 0 10 -10l-10 -72q-1 -10 -10 -10h-115q-6 0 -6 -6v-23q0 -6 6 -6h110q10 0 10 -10l-10 -72q-1 -10 -10 -10h-100q-6 0 -6 -6v-33.5t0.5 -20t1.5 -11.5t2 -7q5 -14 19 -14
q11 0 16.5 9t6.5 31q0 12 11 10l151 -23q10 -1 10 -12q-5 -75 -52 -119t-145 -44z" />
      <glyph d="M412 139q-7 -60 -41.5 -97t-95.5 -48v-79q0 -10 -10 -10h-93q-10 0 -10 10v81q-95 20 -124 111q-8 23 -10.5 54.5t-2.5 83.5t2.5 83.5t10.5 54.5q30 90 124 110v82q0 10 10 10h93q10 0 10 -10v-79q61 -11 95.5 -48t41.5 -97q2 -10 -8 -12l-140 -24q-12 -2 -12 9
q0 28 -23 28q-17 0 -21 -13q-1 -2 -1.5 -6t-1 -13.5t-0.5 -27v-47.5v-47.5t0.5 -27.5t1 -13.5t1.5 -5.5q4 -13 21 -13q23 0 23 28q0 10 12 9l140 -24q10 -2 8 -12z" />
      <glyph d="M167 -6q-41 7 -69 23.5t-45 40.5t-25 55t-9 67q0 11 8 12l150 25q11 2 11 -8q2 -45 9.5 -58t22.5 -13t21.5 10t6.5 46q0 15 -2 25.5t-7.5 18.5t-16.5 14.5t-29 13.5l-41 16q-33 13 -57 30t-39.5 40.5t-23 54.5t-7.5 72q0 89 34.5 140.5t107.5 65.5v75q0 10 10 10h97
q10 0 10 -10v-76q68 -13 101 -57t39 -116q0 -10 -8 -11l-150 -23q-11 -2 -11 8q-2 35 -8.5 46t-19.5 11q-12 0 -18 -9t-6 -35q0 -12 2 -21t8 -17t17.5 -15t30.5 -14l41 -16q36 -14 59.5 -31.5t38 -41.5t20.5 -55.5t6 -73.5q0 -189 -142 -217v-77q0 -10 -10 -10h-97
q-10 0 -10 10v75z" />
      <glyph d="M43 0q-10 0 -10 10v123q0 10 7 17t11.5 14.5t7.5 17.5t4 23.5t1 33.5v24q0 6 -6 6h-26q-10 0 -10 10v102q0 10 10 10h26q6 0 6 6v107q0 94 53.5 140t143.5 46q50 0 87 -13t61.5 -36t36.5 -54.5t12 -68.5q0 -10 -10 -11l-154 -23q-10 -1 -10 10q0 28 -4.5 38t-15.5 10
q-20 0 -20 -35v-110q0 -6 6 -6h110q10 0 10 -10v-102q0 -10 -10 -10h-110q-6 0 -6 -6v-27q0 -29 -6 -49.5t-20 -35.5v-3h221q10 0 10 -10v-128q0 -10 -10 -10h-396z" />
      <glyph d="M315 297l-42 -309q-13 -90 -64 -129t-149 -39h-35q-10 0 -10 10v121q0 10 10 10h13q27 0 41 9.5t17 32.5l40 294h-51q-10 0 -10 10v110q0 10 10 10h69l12 85q13 90 64 129t149 39h35q10 0 10 -10v-121q0 -10 -10 -10h-13q-27 0 -41 -9.5t-17 -32.5l-10 -70h58
q10 0 10 -10v-110q0 -10 -10 -10h-76z" />
      <glyph d="M150 0q-10 0 -10 10v68q0 6 -6 6h-80q-10 0 -10 10v76q0 10 10 10h80q6 0 6 6v19q0 6 -6 6h-80q-10 0 -10 10v76q0 10 10 10h69v3l-114 360q-3 10 8 10h158q10 0 12 -10l43 -218h4l41 218q2 10 12 10h156q11 0 8 -10l-114 -360v-3h69q10 0 10 -10v-76q0 -10 -10 -10h-80
q-6 0 -6 -6v-19q0 -6 6 -6h80q10 0 10 -10v-76q0 -10 -10 -10h-80q-6 0 -6 -6v-68q0 -10 -10 -10h-160z" />
      <glyph d="M230 -10q-75 0 -123 31.5t-68 91.5q-8 23 -11.5 53t-3.5 79t3.5 79t11.5 53q20 60 68 91.5t123 31.5t123 -31.5t68 -91.5q8 -23 11.5 -53t3.5 -79t-3.5 -79t-11.5 -53q-20 -60 -68 -91.5t-123 -31.5zM230 138q16 0 21 15q1 2 1.5 6t1 13.5t0.5 26.5v46v46t-0.5 26.5
t-1 13.5t-1.5 6q-5 15 -21 15q-17 0 -21 -15q-1 -2 -1.5 -6t-1 -13.5t-0.5 -26.5v-46v-46t0.5 -26.5t1 -13.5t1.5 -6q4 -15 21 -15z" />
      <glyph d="M137 0q-10 0 -10 10v301h-2l-92 -29q-14 -5 -14 9v143q0 10 9 14l93 38q4 2 8.5 3t10.5 1h157q10 0 10 -10v-470q0 -10 -10 -10h-160z" />
      <glyph d="M31 0q-10 0 -10 10v111q0 13 9 19l165 102q15 9 24.5 16.5t15 16t7 18.5t1.5 25q0 11 -3 20q-5 14 -21 14t-21 -14q-2 -5 -2.5 -12t-0.5 -24q0 -12 -12 -10l-152 15q-10 1 -10 12q0 14 2.5 32t7.5 34q18 55 65.5 85t125.5 30t125.5 -29.5t65.5 -84.5q5 -16 7.5 -31
t2.5 -37q0 -51 -20 -82t-58 -55l-64 -41v-2h132q10 0 10 -10v-118q0 -10 -10 -10h-382z" />
      <glyph d="M224 -190q-78 0 -125.5 31t-65.5 86q-5 16 -7.5 33t-2.5 33q0 11 10 12l152 15q12 2 12 -10q0 -19 0.5 -26t2.5 -12q5 -14 21 -14t21 14q2 5 2.5 13.5t0.5 37.5q0 23 -0.5 31.5t-2.5 13.5q-6 20 -37 20h-37q-10 0 -10 10v138q0 10 6 16l70 78v4h-191q-10 0 -10 10v136
q0 10 10 10h372q10 0 10 -10v-140q0 -11 -6 -17l-89 -99v-2q27 -8 49.5 -25t33.5 -52q4 -12 6 -22.5t3.5 -24t2 -31.5t0.5 -44q0 -35 -2.5 -57.5t-7.5 -38.5q-18 -55 -65.5 -86t-125.5 -31z" />
      <glyph d="M265 -180q-10 0 -10 10v164q0 6 -6 6h-215q-10 0 -10 10v150q0 5 2 11l98 311q3 8 10 8h157q10 0 7 -10l-96 -322v-2h47q6 0 6 6v81q0 10 10 10h148q10 0 10 -10v-81q0 -6 5 -6h21q10 0 10 -10v-136q0 -10 -10 -10h-20q-6 0 -6 -6v-164q0 -10 -10 -10h-148z" />
      <glyph d="M228 -190q-78 0 -125.5 31t-65.5 86q-5 16 -7.5 33t-2.5 31q0 11 10 12l152 15q12 2 12 -10q0 -17 0.5 -24t2.5 -12q5 -14 21 -14t21 14q1 4 2 15.5t1 52.5v33t-0.5 19t-1 10.5t-1.5 5.5q-5 14 -22 14q-21 0 -25 -21q-2 -10 -12 -10h-143q-9 0 -9 10v379q0 10 10 10h370
q10 0 10 -10v-136q0 -10 -10 -10h-216q-6 0 -6 -6v-86h2q11 8 29.5 15t50.5 7q54 0 89.5 -22t51.5 -71q3 -10 5.5 -21.5t4 -26.5t2.5 -35.5t1 -47.5q0 -26 -0.5 -43.5t-2 -30.5t-3 -22t-4.5 -17q-18 -55 -65.5 -86t-125.5 -31z" />
      <glyph d="M229 -10q-76 0 -125 30t-68 88q-5 16 -8 37t-3 58q0 33 2.5 59.5t8 49t13.5 43t19 41.5l139 275q4 9 16 9h160q5 0 7 -4t0 -9l-124 -255l2 -2q8 2 20 2q50 0 83.5 -27.5t49.5 -75.5q6 -18 9 -41t3 -65q0 -37 -3 -58t-8 -37q-19 -58 -68 -88t-125 -30zM229 138q16 0 21 14
q2 5 2.5 14t0.5 37t-0.5 37t-2.5 14q-5 14 -21 14t-21 -14q-2 -5 -2.5 -14t-0.5 -37t0.5 -37t2.5 -14q5 -14 21 -14z" />
      <glyph d="M91 -180q-11 0 -8 11l162 506v2h-68q-6 0 -6 -6v-42q0 -10 -10 -10h-130q-10 0 -10 10v189q0 10 10 10h385q10 0 10 -10v-124q0 -5 -0.5 -7.5t-1.5 -5.5l-159 -513q-3 -10 -13 -10h-161z" />
      <glyph d="M229 -10q-76 0 -125 30t-68 88q-5 16 -8 36.5t-3 53.5q0 32 2.5 51t8.5 37q9 28 24.5 44t29.5 24v2q-17 10 -32 28t-24 46t-9 66q0 43 11 76q19 58 68 88t125 30t125 -30t68 -88q11 -33 11 -76q0 -38 -9 -66t-24 -46t-32 -28v-2q14 -8 29.5 -24t24.5 -44q6 -18 8.5 -37
t2.5 -51q0 -33 -3 -53.5t-8 -36.5q-19 -58 -68 -88t-125 -30zM229 418q16 0 21 14q2 5 2.5 13.5t0.5 34.5t-0.5 34.5t-2.5 13.5q-5 14 -21 14t-21 -14q-2 -5 -2.5 -13.5t-0.5 -34.5t0.5 -34.5t2.5 -13.5q5 -14 21 -14zM229 138q16 0 21 14q2 5 2.5 14t0.5 38t-0.5 38
t-2.5 14q-5 14 -21 14t-21 -14q-2 -5 -2.5 -14t-0.5 -38t0.5 -38t2.5 -14q5 -14 21 -14z" />
      <glyph d="M80 -180q-5 0 -7 4t0 9l119 245l-2 2q-8 -2 -20 -2q-50 0 -83.5 27.5t-49.5 75.5q-6 18 -9 41t-3 65q0 37 3 58t8 37q19 58 68 88t125 30t125 -30t68 -88q5 -16 8 -37t3 -58q0 -33 -2.5 -59.5t-8 -49t-13.5 -43t-19 -41.5l-134 -265q-5 -9 -16 -9h-160zM229 222
q16 0 21 14q2 5 2.5 14t0.5 37t-0.5 37t-2.5 14q-5 14 -21 14t-21 -14q-2 -5 -2.5 -14t-0.5 -37t0.5 -37t2.5 -14q5 -14 21 -14z" />
      <glyph d="M156 430q-10 0 -10 10v258h-2l-55 -34q-4 -2 -7 -1t-3 6v110q0 10 7 14l57 37q9 6 17 6h106q10 0 10 -10v-386q0 -10 -10 -10h-110z" />
      <glyph d="M47 430q-10 0 -10 10v84q0 10 7 17l115 124q16 18 20 25.5t4 22.5q0 11 -2 17q-4 11 -16 11t-16 -11q-1 -2 -1.5 -6.5t-0.5 -13.5q0 -12 -12 -10l-102 10q-10 1 -10 12q0 16 2 26t4 18q11 36 47.5 56.5t91.5 20.5t91.5 -20.5t47.5 -56.5q2 -8 4 -19t2 -34
q0 -31 -9.5 -52.5t-33.5 -50.5l-59 -69v-2h85q10 0 10 -10v-89q0 -10 -10 -10h-249z" />
      <glyph d="M168 423q-56 0 -92.5 20.5t-47.5 56.5q-5 17 -5 30q0 11 10 12l102 10q12 2 12 -10q0 -5 2 -9q4 -8 16 -8t16 11q2 6 2 18q0 5 -0.5 8t-1.5 6q-4 13 -24 13h-7q-10 0 -10 10v91q0 10 10 10h13q15 0 18 10q2 6 2 12q0 10 -2 16q-4 11 -16 11t-16 -8q-2 -4 -2 -9
q0 -12 -12 -10l-102 10q-10 1 -10 12q0 13 5 30q11 36 47.5 56.5t92.5 20.5t92.5 -20.5t47.5 -56.5q2 -8 3.5 -17t1.5 -21q0 -11 -1 -19.5t-4 -17.5q-10 -30 -44 -48v-2q32 -14 43 -46q6 -20 6 -47q0 -19 -1.5 -29.5t-3.5 -18.5q-11 -36 -47.5 -56.5t-92.5 -20.5z" />
      <glyph d="M258 0q-10 0 -10 10v38h-1q-31 -58 -102 -58q-45 0 -70 17t-39 58q-4 12 -7 27t-5 36t-3 49.5t-1 67.5t1 67.5t3 49.5t5 36t7 27q14 41 39 58t70 17q71 0 102 -58h1v38q0 10 10 10h158q10 0 10 -10v-470q0 -10 -10 -10h-158zM223 138q15 0 20 14q1 3 1.5 6.5t1 13t0.5 27
v46.5v46.5t-0.5 27t-1 13t-1.5 6.5q-5 14 -20 14t-20 -14q-1 -3 -1.5 -6.5t-1 -13t-0.5 -27v-46.5v-46.5t0.5 -27t1 -13t1.5 -6.5q5 -14 20 -14z" />
      <glyph d="M258 0q-10 0 -10 10v38h-1q-31 -58 -102 -58q-45 0 -70 17t-39 58q-4 12 -7 27t-5 36t-3 49.5t-1 67.5t1 67.5t3 49.5t5 36t7 27q14 41 39 58t70 17q71 0 102 -58h1v38q0 10 10 10h158q10 0 10 -10v-470q0 -10 -10 -10h-158zM223 138q15 0 20 14q1 3 1.5 6.5t1 13t0.5 27
v46.5v46.5t-0.5 27t-1 13t-1.5 6.5q-5 14 -20 14t-20 -14q-1 -3 -1.5 -6.5t-1 -13t-0.5 -27v-46.5v-46.5t0.5 -27t1 -13t1.5 -6.5q5 -14 20 -14zM190 540q-11 0 -18 10l-100 144q-3 4 -1.5 7t6.5 3h144q10 0 16 -10l78 -144q5 -10 -6 -10h-119z" />
      <glyph d="M258 0q-10 0 -10 10v38h-1q-31 -58 -102 -58q-45 0 -70 17t-39 58q-4 12 -7 27t-5 36t-3 49.5t-1 67.5t1 67.5t3 49.5t5 36t7 27q14 41 39 58t70 17q71 0 102 -58h1v38q0 10 10 10h158q10 0 10 -10v-470q0 -10 -10 -10h-158zM223 138q15 0 20 14q1 3 1.5 6.5t1 13t0.5 27
v46.5v46.5t-0.5 27t-1 13t-1.5 6.5q-5 14 -20 14t-20 -14q-1 -3 -1.5 -6.5t-1 -13t-0.5 -27v-46.5v-46.5t0.5 -27t1 -13t1.5 -6.5q5 -14 20 -14zM142 540q-11 0 -6 10l78 144q6 10 16 10h144q5 0 6.5 -3t-1.5 -7l-100 -144q-8 -10 -18 -10h-119z" />
      <glyph d="M258 0q-10 0 -10 10v38h-1q-31 -58 -102 -58q-45 0 -70 17t-39 58q-4 12 -7 27t-5 36t-3 49.5t-1 67.5t1 67.5t3 49.5t5 36t7 27q14 41 39 58t70 17q71 0 102 -58h1v38q0 10 10 10h158q10 0 10 -10v-470q0 -10 -10 -10h-158zM223 138q15 0 20 14q1 3 1.5 6.5t1 13t0.5 27
v46.5v46.5t-0.5 27t-1 13t-1.5 6.5q-5 14 -20 14t-20 -14q-1 -3 -1.5 -6.5t-1 -13t-0.5 -27v-46.5v-46.5t0.5 -27t1 -13t1.5 -6.5q5 -14 20 -14zM299 538q-10 0 -19 10l-47 55h-2l-47 -55q-9 -10 -19 -10h-92q-5 0 -6 3t2 7l97 144q7 10 16 10h100q9 0 16 -10l97 -144
q3 -4 2 -7t-6 -3h-92z" />
      <glyph d="M258 0q-10 0 -10 10v38h-1q-31 -58 -102 -58q-45 0 -70 17t-39 58q-4 12 -7 27t-5 36t-3 49.5t-1 67.5t1 67.5t3 49.5t5 36t7 27q14 41 39 58t70 17q71 0 102 -58h1v38q0 10 10 10h158q10 0 10 -10v-470q0 -10 -10 -10h-158zM223 138q15 0 20 14q1 3 1.5 6.5t1 13t0.5 27
v46.5v46.5t-0.5 27t-1 13t-1.5 6.5q-5 14 -20 14t-20 -14q-1 -3 -1.5 -6.5t-1 -13t-0.5 -27v-46.5v-46.5t0.5 -27t1 -13t1.5 -6.5q5 -14 20 -14zM292 538q-20 0 -35 6.5t-29 14.5q-13 8 -26.5 13.5t-30.5 5.5q-23 0 -39 -9t-33 -26q-4 -4 -7 -3t-3 6v102q0 6 1 8.5t5 6.5
q15 16 34 25.5t43 9.5q20 0 35 -6.5t29 -14.5q13 -8 26.5 -13.5t30.5 -5.5q23 0 39 9t33 26q4 4 7 3t3 -6v-102q0 -6 -1 -8.5t-5 -6.5q-15 -16 -34 -25.5t-43 -9.5z" />
      <glyph d="M258 0q-10 0 -10 10v38h-1q-31 -58 -102 -58q-45 0 -70 17t-39 58q-4 12 -7 27t-5 36t-3 49.5t-1 67.5t1 67.5t3 49.5t5 36t7 27q14 41 39 58t70 17q71 0 102 -58h1v38q0 10 10 10h158q10 0 10 -10v-470q0 -10 -10 -10h-158zM223 138q15 0 20 14q1 3 1.5 6.5t1 13t0.5 27
v46.5v46.5t-0.5 27t-1 13t-1.5 6.5q-5 14 -20 14t-20 -14q-1 -3 -1.5 -6.5t-1 -13t-0.5 -27v-46.5v-46.5t0.5 -27t1 -13t1.5 -6.5q5 -14 20 -14zM264 538q-10 0 -10 10v124q0 10 10 10h106q10 0 10 -10v-124q0 -10 -10 -10h-106zM94 538q-10 0 -10 10v124q0 10 10 10h106
q10 0 10 -10v-124q0 -10 -10 -10h-106z" />
      <glyph d="M258 0q-10 0 -10 10v38h-1q-31 -58 -102 -58q-45 0 -70 17t-39 58q-4 12 -7 27t-5 36t-3 49.5t-1 67.5t1 67.5t3 49.5t5 36t7 27q14 41 39 58t70 17q71 0 102 -58h1v38q0 10 10 10h158q10 0 10 -10v-470q0 -10 -10 -10h-158zM223 138q15 0 20 14q1 3 1.5 6.5t1 13t0.5 27
v46.5v46.5t-0.5 27t-1 13t-1.5 6.5q-5 14 -20 14t-20 -14q-1 -3 -1.5 -6.5t-1 -13t-0.5 -27v-46.5v-46.5t0.5 -27t1 -13t1.5 -6.5q5 -14 20 -14zM98 549q-10 0 -10 10v106q0 10 10 10h268q10 0 10 -10v-106q0 -10 -10 -10h-268z" />
      <glyph d="M258 0q-10 0 -10 10v38h-1q-31 -58 -102 -58q-45 0 -70 17t-39 58q-4 12 -7 27t-5 36t-3 49.5t-1 67.5t1 67.5t3 49.5t5 36t7 27q14 41 39 58t70 17q71 0 102 -58h1v38q0 10 10 10h158q10 0 10 -10v-470q0 -10 -10 -10h-158zM223 138q15 0 20 14q1 3 1.5 6.5t1 13t0.5 27
v46.5v46.5t-0.5 27t-1 13t-1.5 6.5q-5 14 -20 14t-20 -14q-1 -3 -1.5 -6.5t-1 -13t-0.5 -27v-46.5v-46.5t0.5 -27t1 -13t1.5 -6.5q5 -14 20 -14zM225 532q-36 0 -63.5 11.5t-47 31.5t-29.5 47.5t-10 59.5q0 11 14 11h69q12 0 16 -11q16 -38 51 -38t51 38q4 11 16 11h69
q14 0 14 -11q0 -32 -10 -59.5t-29.5 -47.5t-47 -31.5t-63.5 -11.5z" />
      <glyph d="M258 0q-10 0 -10 10v38h-1q-31 -58 -102 -58q-45 0 -70 17t-39 58q-4 12 -7 27t-5 36t-3 49.5t-1 67.5t1 67.5t3 49.5t5 36t7 27q14 41 39 58t70 17q71 0 102 -58h1v38q0 10 10 10h158q10 0 10 -10v-470q0 -10 -10 -10h-158zM223 138q15 0 20 14q1 3 1.5 6.5t1 13t0.5 27
v46.5v46.5t-0.5 27t-1 13t-1.5 6.5q-5 14 -20 14t-20 -14q-1 -3 -1.5 -6.5t-1 -13t-0.5 -27v-46.5v-46.5t0.5 -27t1 -13t1.5 -6.5q5 -14 20 -14zM232 521q-48 0 -79 30t-31 78t31 78t79 30t79 -30t31 -78t-31 -78t-79 -30zM232 588q17 0 28 11.5t11 29.5t-11 29.5t-28 11.5
t-28 -11.5t-11 -29.5t11 -29.5t28 -11.5z" />
      </font>
</defs>
</svg>
