<?xml version="1.0" standalone="no"?>
<!DOCTYPE svg PUBLIC "-//W3C//DTD SVG 1.1//EN" "http://www.w3.org/Graphics/SVG/1.1/DTD/svg11.dtd"[]>
<svg xmlns="http://www.w3.org/2000/svg" xmlns:xlink="http://www.w3.org/1999/xlink" version="1.1">
  <metadata>
Created by FontForge 20201107 at Wed Feb 24 11:38:12 2010
 By Unknown
Copyright (c) 2010 Linotype GmbH, www.linotype.com. All rights reserved. This font software may not be reproduced, modified, disclosed or transferred without the express written approval of Linotype GmbH.
</metadata>
  <defs>
    <font id="DINNextLTPro-HeavyCondensed">
      <glyph d="M37 670q0 10 10 10h139q10 0 10 -10v-660q0 -10 -10 -10h-139q-10 0 -10 10v660zM245 48q-7 6 1 14l84 85q8 8 17 0q17 -15 35 -15q42 0 42 51v487q0 10 10 10h139q10 0 10 -10v-472q0 -107 -52.5 -157.5t-145.5 -50.5q-44 0 -81 16t-59 42z" />
      <glyph d="M45 550q-10 0 -10 10v110q0 10 10 10h131q10 0 10 -10v-110q0 -10 -10 -10h-131zM45 0q-10 0 -10 10v467q0 10 10 10h131q10 0 10 -10v-467q0 -10 -10 -10h-131zM266 550q-10 0 -10 10v110q0 10 10 10h131q10 0 10 -10v-110q0 -10 -10 -10h-131zM201 -180q-10 0 -10 10
v110q0 10 10 10l14 1q22 2 31.5 13.5t9.5 43.5v469q0 10 10 10h131q10 0 10 -10v-463q0 -194 -185 -194h-21z" />
      <glyph d="M-42 475q-10 0 -10 10v185q0 10 10 10h93q10 0 10 -10v-84q0 -14 -9 -24l-82 -81q-5 -6 -12 -6zM261 0q-10 0 -10 10v311q0 45 -32 45q-33 0 -33 -45v-311q0 -10 -10 -10h-131q-10 0 -10 10v467q0 10 10 10h130q10 0 10 -10v-37h1q13 25 37.5 41t61.5 16q63 0 90 -36
t27 -114v-337q0 -10 -10 -10h-131z" />
      <glyph d="M73 0q-10 0 -10 10v360q0 6 -6 6h-31q-10 0 -10 10v91q0 10 10 10h31q6 0 6 6v18q0 88 44.5 128.5t136.5 40.5h35q10 0 10 -10v-107q0 -10 -10 -10h-26q-21 0 -30 -8.5t-9 -26.5v-25q0 -6 6 -6h59q10 0 10 -10v-91q0 -10 -10 -10h-59q-6 0 -6 -6v-360q0 -10 -10 -10h-131
zM378 0q-10 0 -10 10v360q0 6 -6 6h-31q-10 0 -10 10v91q0 10 10 10h31q6 0 6 6v18q0 88 44.5 128.5t136.5 40.5h35q10 0 10 -10v-107q0 -10 -10 -10h-26q-21 0 -30 -8.5t-9 -26.5v-25q0 -6 6 -6h59q10 0 10 -10v-91q0 -10 -10 -10h-59q-6 0 -6 -6v-360q0 -10 -10 -10h-131z
" />
      <glyph d="M350 550q-10 0 -10 10v110q0 10 10 10h131q10 0 10 -10v-110q0 -10 -10 -10h-131zM350 0q-10 0 -10 10v467q0 10 10 10h131q10 0 10 -10v-467q0 -10 -10 -10h-131zM73 0q-10 0 -10 10v360q0 6 -6 6h-31q-10 0 -10 10v91q0 10 10 10h31q6 0 6 6v18q0 88 44.5 128.5
t136.5 40.5h35q10 0 10 -10v-107q0 -10 -10 -10h-26q-21 0 -30 -8.5t-9 -26.5v-25q0 -6 6 -6h59q10 0 10 -10v-91q0 -10 -10 -10h-59q-6 0 -6 -6v-360q0 -10 -10 -10h-131z" />
      <glyph d="M516 -6q-46 0 -79 9t-54.5 30t-31.5 55.5t-10 85.5v496q0 10 10 10h131q10 0 10 -10v-495q0 -25 10.5 -36.5t28.5 -13.5l6 -1q10 0 10 -11v-109q0 -10 -10 -10h-21zM73 0q-10 0 -10 10v360q0 6 -6 6h-31q-10 0 -10 10v91q0 10 10 10h31q6 0 6 6v18q0 88 44.5 128.5
t136.5 40.5h35q10 0 10 -10v-107q0 -10 -10 -10h-26q-21 0 -30 -8.5t-9 -26.5v-25q0 -6 6 -6h59q10 0 10 -10v-91q0 -10 -10 -10h-59q-6 0 -6 -6v-360q0 -10 -10 -10h-131z" />
      <glyph d="M656 550q-10 0 -10 10v110q0 10 10 10h131q10 0 10 -10v-110q0 -10 -10 -10h-131zM656 0q-10 0 -10 10v467q0 10 10 10h131q10 0 10 -10v-467q0 -10 -10 -10h-131zM73 0q-10 0 -10 10v360q0 6 -6 6h-31q-10 0 -10 10v91q0 10 10 10h31q6 0 6 6v18q0 88 44.5 128.5
t136.5 40.5h35q10 0 10 -10v-107q0 -10 -10 -10h-26q-21 0 -30 -8.5t-9 -26.5v-25q0 -6 6 -6h59q10 0 10 -10v-91q0 -10 -10 -10h-59q-6 0 -6 -6v-360q0 -10 -10 -10h-131zM378 0q-10 0 -10 10v360q0 6 -6 6h-31q-10 0 -10 10v91q0 10 10 10h31q6 0 6 6v18q0 88 44.5 128.5
t136.5 40.5h35q10 0 10 -10v-107q0 -10 -10 -10h-26q-21 0 -30 -8.5t-9 -26.5v-25q0 -6 6 -6h59q10 0 10 -10v-91q0 -10 -10 -10h-59q-6 0 -6 -6v-360q0 -10 -10 -10h-131z" />
      <glyph d="M822 -6q-46 0 -79 9t-54.5 30t-31.5 55.5t-10 85.5v496q0 10 10 10h131q10 0 10 -10v-495q0 -25 10.5 -36.5t28.5 -13.5l6 -1q10 0 10 -11v-109q0 -10 -10 -10h-21zM73 0q-10 0 -10 10v360q0 6 -6 6h-31q-10 0 -10 10v91q0 10 10 10h31q6 0 6 6v18q0 88 44.5 128.5
t136.5 40.5h35q10 0 10 -10v-107q0 -10 -10 -10h-26q-21 0 -30 -8.5t-9 -26.5v-25q0 -6 6 -6h59q10 0 10 -10v-91q0 -10 -10 -10h-59q-6 0 -6 -6v-360q0 -10 -10 -10h-131zM378 0q-10 0 -10 10v360q0 6 -6 6h-31q-10 0 -10 10v91q0 10 10 10h31q6 0 6 6v18q0 88 44.5 128.5
t136.5 40.5h35q10 0 10 -10v-107q0 -10 -10 -10h-26q-21 0 -30 -8.5t-9 -26.5v-25q0 -6 6 -6h59q10 0 10 -10v-91q0 -10 -10 -10h-59q-6 0 -6 -6v-360q0 -10 -10 -10h-131z" />
      <glyph d="M0 670q0 10 10 10h423q10 0 10 -10v-660q0 -10 -10 -10h-423q-10 0 -10 10v660zM72 73q0 -6 6 -6h287q6 0 6 6v534q0 6 -6 6h-287q-6 0 -6 -6v-534zM182 249q-10 0 -10 10v26q0 15 3.5 27t13.5 26l33 51q11 17 15 28.5t4 29.5q0 12 -3 20q-5 13 -20 13q-14 0 -19 -13
q-2 -4 -2.5 -10t-0.5 -23q0 -11 -11 -9l-75 8q-9 0 -9 11q0 17 1.5 27.5t5.5 20.5q11 32 39 51.5t73 19.5t73 -19.5t39 -51.5q7 -18 7 -44q0 -23 -6 -40.5t-20 -40.5l-33 -51q-8 -11 -10.5 -18.5t-2.5 -18.5v-20q0 -10 -10 -10h-75zM175 204q0 10 10 10h72q10 0 10 -10v-80
q0 -10 -10 -10h-72q-10 0 -10 10v80z" />
      <glyph />
      <glyph d="M88 208q-10 0 -10 10l-28 452q0 10 10 10h135q10 0 10 -10l-27 -452q0 -10 -10 -10h-80zM58 145q0 10 10 10h120q10 0 10 -10v-135q0 -10 -10 -10h-120q-10 0 -10 10v135z" />
      <glyph d="M194 460q-10 0 -10 10v200q0 10 10 10h88q10 0 10 -10v-200q0 -10 -10 -10h-88zM45 460q-10 0 -10 10v200q0 10 10 10h88q10 0 10 -10v-200q0 -10 -10 -10h-88z" />
      <glyph d="M90 194h-48q-10 0 -10 10v84q0 10 10 10h59l9 92h-49q-10 0 -10 10v83q0 10 10 10h60l19 177q2 10 11 10h98q11 0 9 -10l-19 -177h65l19 177q2 10 11 10h98q11 0 9 -10l-19 -177h58q10 0 10 -10v-83q0 -10 -10 -10h-69l-9 -92h59q10 0 10 -10v-84q0 -10 -10 -10h-70
l-19 -184q-2 -10 -11 -10h-98q-11 0 -9 10l19 184h-65l-19 -184q-2 -10 -11 -10h-98q-11 0 -9 10zM284 298l9 92h-65l-9 -92h65z" />
      <glyph d="M175 -7q-78 10 -111 57.5t-35 123.5q0 11 8 12l122 21q11 1 11 -9q2 -48 12.5 -64t33.5 -16q21 0 30.5 13.5t9.5 57.5q0 20 -2.5 34t-9 24t-18 17.5t-29.5 14.5l-41 16q-65 25 -93 69.5t-28 124.5q0 87 34 137t106 61v61q0 10 10 10h69q10 0 10 -10v-62q67 -11 99 -54
t38 -114q0 -10 -9 -11l-121 -19q-9 -2 -11 8q-2 38 -11 52t-29 14t-28.5 -13t-8.5 -46q0 -16 2 -27.5t8.5 -20.5t18.5 -17t31 -15l41 -16q34 -13 57 -30t37 -41t20 -55.5t6 -74.5q0 -190 -140 -212v-68q0 -10 -10 -10h-69q-10 0 -10 10v67z" />
      <glyph d="M446 680q3 10 14 10h81q10 0 7 -10l-254 -680q-3 -10 -13 -10h-82q-10 0 -7 10zM176 329q-45 0 -74 19.5t-40 53.5q-2 7 -3.5 15t-2.5 19.5t-1.5 28.5t-0.5 43q0 27 0.5 44t1.5 28.5t2.5 19t3.5 15.5q11 33 40 52.5t74 19.5q46 0 74.5 -19.5t39.5 -52.5q2 -8 3.5 -15.5
t2.5 -19t1.5 -28.5t0.5 -44q0 -26 -0.5 -43t-1.5 -28.5t-2.5 -19.5t-3.5 -15q-11 -34 -39.5 -53.5t-74.5 -19.5zM176 411q15 0 19 13q1 2 1.5 6t1 13t0.5 24.5v40.5v40.5t-0.5 24.5t-1 13t-1.5 6q-4 13 -19 13t-19 -13q-1 -2 -1.5 -6t-1 -13t-0.5 -24.5v-40.5v-40.5
t0.5 -24.5t1 -13t1.5 -6q4 -13 19 -13zM450 66q-2 7 -3.5 15t-2.5 19.5t-1.5 28.5t-0.5 43q0 27 0.5 44t1.5 28.5t2.5 19t3.5 15.5q11 33 40 52.5t74 19.5q46 0 74.5 -19.5t39.5 -52.5q2 -8 3.5 -15.5t2.5 -19t1.5 -28.5t0.5 -44q0 -26 -0.5 -43t-1.5 -28.5t-2.5 -19.5
t-3.5 -15q-11 -34 -39.5 -53.5t-74.5 -19.5q-45 0 -74 19.5t-40 53.5zM545 88q4 -13 19 -13t19 13q1 2 1.5 6t1 13t0.5 24.5v40.5v40.5t-0.5 24.5t-1 13t-1.5 6q-4 13 -19 13t-19 -13q-1 -2 -1.5 -6t-1 -13t-0.5 -24.5v-40.5v-40.5t0.5 -24.5t1 -13t1.5 -6z" />
      <glyph d="M45 154q0 51 25 98.5t82 106.5q-34 51 -53 90.5t-19 82.5q0 36 12.5 65t35 49.5t53.5 32t69 11.5q37 0 68.5 -11.5t53.5 -32t34.5 -49.5t12.5 -65q0 -43 -23.5 -86.5t-77.5 -99.5l51 -77l39 57q6 8 15 2l81 -58q7 -6 2 -14l-66 -94l14 -21q8 -13 16.5 -16.5t20.5 -3.5h6
q10 0 10 -10v-101q0 -10 -10 -10h-46q-34 0 -53.5 9.5t-39.5 38.5l-1 2q-32 -33 -66.5 -46.5t-79.5 -13.5q-36 0 -66.5 11.5t-52.5 32.5t-34.5 51.5t-12.5 68.5zM248 455q23 27 30.5 45.5t7.5 38.5t-9.5 31t-26.5 11q-18 0 -27 -11t-9 -31q0 -13 7.5 -32.5t26.5 -51.5z
M185 167q0 -23 12 -35.5t32 -12.5q14 0 27 7t31 29l-63 96q-22 -26 -30.5 -45.5t-8.5 -38.5z" />
      <glyph d="M45 460q-10 0 -10 10v200q0 10 10 10h88q10 0 10 -10v-200q0 -10 -10 -10h-88z" />
      <glyph d="M141 -74q-45 91 -66.5 195t-21.5 207t21.5 207t66.5 195q5 10 13 10h88q10 0 7 -10q-27 -91 -42 -195t-15 -207t15 -207t42 -195q3 -10 -7 -10h-88q-8 0 -13 10z" />
      <glyph d="M32 -74q27 91 42 195t15 207t-15 207t-42 195q-3 10 7 10h88q8 0 13 -10q45 -91 66.5 -195t21.5 -207t-21.5 -207t-66.5 -195q-5 -10 -13 -10h-88q-10 0 -7 10z" />
      <glyph d="M151 355q-10 0 -10 10l1 81l-57 -34q-9 -6 -13 4l-32 55q-5 9 3 14l58 32l-58 33q-8 5 -3 14l32 55q5 9 13 4l57 -35l-1 82q0 10 10 10h64q10 0 10 -10l-2 -82l58 35q9 6 13 -4l33 -55q5 -9 -3 -14l-59 -33l59 -32q8 -5 3 -14l-33 -55q-5 -9 -13 -4l-58 34l2 -81
q0 -10 -10 -10h-64z" />
      <glyph d="M157 210q0 6 -6 6h-112q-10 0 -10 10v100q0 10 10 10h112q6 0 6 6v115q0 10 10 10h103q10 0 10 -10v-115q0 -6 6 -6h112q10 0 10 -10v-100q0 -10 -10 -10h-112q-6 0 -6 -6v-115q0 -10 -10 -10h-103q-10 0 -10 10v115z" />
      <glyph d="M40 145q0 10 10 10h112q10 0 10 -10v-112q0 -17 -9 -27l-101 -103q-5 -5 -12 -5q-10 0 -10 10v237z" />
      <glyph d="M45 197q-10 0 -10 10v116q0 10 10 10h268q10 0 10 -10v-116q0 -10 -10 -10h-268z" />
      <glyph d="M40 145q0 10 10 10h121q10 0 10 -10v-135q0 -10 -10 -10h-121q-10 0 -10 10v135z" />
      <glyph d="M140 680q2 10 13 10h107q10 0 8 -10l-124 -680q-2 -10 -13 -10h-107q-10 0 -8 10z" />
      <glyph d="M46 103q-3 10 -6 24t-4.5 39.5t-2.5 66.5t-1 107t1 107t2.5 66.5t4.5 39t6 24.5q18 55 61.5 84t110.5 29t110.5 -29t61.5 -84q3 -11 6 -24.5t4.5 -39t2.5 -66.5t1 -107t-1 -107t-2.5 -66.5t-4.5 -39.5t-6 -24q-18 -55 -61.5 -84t-110.5 -29t-110.5 29t-61.5 84zM188 139
q6 -21 30 -21t30 21q1 3 2 9t1.5 26t0.5 59v107v107t-0.5 59t-1.5 26t-2 9q-6 21 -30 21t-30 -21q-1 -3 -2 -9t-1.5 -26t-0.5 -59v-107v-107t0.5 -59t1.5 -26t2 -9z" />
      <glyph d="M165 512h-2l-84 -59q-4 -3 -7.5 -1.5t-3.5 8.5v134q0 8 8 15l88 65q7 6 16 6h126q10 0 10 -10v-660q0 -10 -10 -10h-131q-10 0 -10 10v502z" />
      <glyph d="M36 118q0 10 5 18l172 250q10 15 17 27t11.5 25t6 27.5t1.5 35.5q0 19 -0.5 27t-2.5 13q-8 21 -30 21q-23 0 -31 -21q-2 -5 -2.5 -14.5t-0.5 -38.5q0 -12 -12 -10l-124 12q-10 1 -10 12q0 26 2 44.5t7 34.5q16 52 60 80.5t113 28.5q70 0 113 -29t60 -80q5 -15 7 -34
t2 -46q0 -29 -2.5 -51.5t-9 -43t-17 -40t-26.5 -41.5l-134 -191v-1h179q10 0 10 -10v-113q0 -10 -10 -10h-344q-10 0 -10 10v108z" />
      <glyph d="M45 99q-10 30 -10 71q0 11 10 12l124 12q12 2 12 -10q0 -23 1 -32t3 -14q8 -20 30 -20q24 0 30 21q2 5 2.5 16t0.5 45q0 33 -0.5 44.5t-2.5 16.5q-4 12 -13.5 16.5t-25.5 4.5h-16q-10 0 -10 10v114q0 10 10 10h19q29 0 36 20q1 4 2 14.5t1 43.5q0 23 -0.5 32.5t-2.5 14.5
q-6 21 -30 21q-22 0 -30 -20q-4 -9 -4 -46q0 -12 -12 -10l-124 12q-10 1 -10 12q0 41 10 71q17 51 60 80t112 29q70 0 112.5 -28.5t59.5 -80.5q5 -15 7.5 -35t2.5 -52q0 -26 -2 -42t-7 -30q-14 -42 -55 -66v-2q21 -12 34.5 -27.5t21.5 -38.5q4 -13 6 -31t2 -59t-2.5 -62.5
t-7.5 -36.5q-17 -52 -59.5 -80.5t-112.5 -28.5q-69 0 -112 29t-60 80z" />
      <glyph d="M32 104q-10 0 -10 10v122q0 5 2 11l129 425q3 8 11 8h130q10 0 7 -10l-128 -431v-2h61q6 0 6 6v119q0 10 10 10h122q10 0 10 -10v-119q0 -6 5 -6h26q10 0 10 -10v-113q0 -10 -10 -10h-25q-6 0 -6 -6v-88q0 -10 -10 -10h-122q-10 0 -10 10v88q0 6 -6 6h-202z" />
      <glyph d="M45 99q-5 16 -7 32.5t-2 33.5q0 11 10 12l124 12q12 2 12 -10q0 -19 0.5 -27t2.5 -13q8 -21 31 -21q22 0 30 21q1 3 1.5 6.5t1 12.5t0.5 24v40v40t-0.5 24t-1 12.5t-1.5 6.5q-8 21 -31 21q-25 0 -33 -25q-3 -10 -13 -10h-115q-9 0 -9 10v369q0 10 10 10h333q10 0 10 -10
v-113q0 -10 -10 -10h-204q-6 0 -6 -6v-115h2q11 9 29.5 16.5t47.5 7.5q102 0 131 -88q3 -9 5.5 -20t4 -27t2 -38t0.5 -55q0 -29 -0.5 -49t-1.5 -34t-3 -23.5t-4 -16.5q-17 -51 -60.5 -80t-112.5 -29t-113 28.5t-60 80.5z" />
      <glyph d="M44 100q-5 16 -7.5 37t-2.5 64q0 34 2 60t6.5 48.5t12 42.5t17.5 42l127 277q4 9 15 9h132q12 0 7 -12l-116 -261l2 -2q8 4 25 4q50 0 81.5 -26t46.5 -73q5 -17 8 -40.5t3 -68.5q0 -43 -2.5 -64t-7.5 -37q-17 -54 -61.5 -82t-113.5 -28t-113 28t-61 82zM188 139
q8 -21 30 -21q23 0 31 21q1 3 1.5 6.5t1 10t0.5 17.5v28q0 34 -1 45t-2 16q-8 21 -31 21t-30 -21q-2 -5 -2.5 -16t-0.5 -45v-28t0.5 -17.5t1 -10t1.5 -6.5z" />
      <glyph d="M252 548v2h-81q-6 0 -6 -6v-49q0 -10 -10 -10h-109q-10 0 -10 10v175q0 10 10 10h348q10 0 10 -10v-106q0 -4 -0.5 -6.5t-1.5 -5.5l-164 -542q-3 -10 -13 -10h-132q-12 0 -7 12z" />
      <glyph d="M44 100q-5 16 -7.5 36.5t-2.5 61.5q0 35 2 54.5t8 36.5q8 24 21.5 40t28.5 25v2q-37 22 -51 70q-5 15 -7 31.5t-2 39.5q0 29 2.5 48t7.5 35q17 54 61 82t113 28t113.5 -28t61.5 -82q5 -16 7.5 -35t2.5 -48q0 -23 -2 -39.5t-7 -31.5q-8 -25 -21 -42t-30 -28v-2
q15 -9 28.5 -25t21.5 -40q6 -17 8 -36.5t2 -54.5q0 -41 -2.5 -61.5t-7.5 -36.5q-17 -54 -61.5 -82t-113.5 -28t-113 28t-61 82zM218 413q23 0 31 21q2 5 2.5 14.5t0.5 38.5t-0.5 39t-2.5 15q-8 21 -31 21q-22 0 -30 -21q-2 -5 -2.5 -15t-0.5 -39t0.5 -38.5t2.5 -14.5
q7 -21 30 -21zM188 139q8 -21 30 -21q23 0 31 21q2 5 2.5 16t0.5 47q0 35 -0.5 46t-2.5 16q-8 21 -31 21q-22 0 -30 -21q-2 -5 -2.5 -16t-0.5 -46q0 -36 0.5 -47t2.5 -16z" />
      <glyph d="M200 273l-2 2q-8 -4 -25 -4q-50 0 -81.5 26t-46.5 73q-5 17 -8 40.5t-3 68.5q0 43 2.5 64t7.5 37q17 54 61.5 82t113.5 28t113 -28t61 -82q5 -16 7.5 -37t2.5 -64q0 -34 -2 -60t-6.5 -48.5t-12 -42.5t-17.5 -42l-127 -277q-5 -9 -15 -9h-132q-12 0 -7 12zM219 397
q22 0 30 21q1 3 1.5 6t1 9.5t0.5 17.5v28q0 34 -1 45.5t-2 16.5q-8 21 -30 21q-23 0 -31 -21q-2 -5 -2.5 -16.5t-0.5 -45.5v-28t0.5 -17.5t1 -9.5t1.5 -6q7 -21 31 -21z" />
      <glyph d="M54 332q-10 0 -10 10v135q0 10 10 10h121q10 0 10 -10v-135q0 -10 -10 -10h-121zM44 145q0 10 10 10h121q10 0 10 -10v-135q0 -10 -10 -10h-121q-10 0 -10 10v135z" />
      <glyph d="M54 332q-10 0 -10 10v135q0 10 10 10h121q10 0 10 -10v-135q0 -10 -10 -10h-121zM47 145q0 10 10 10h112q10 0 10 -10v-106q0 -17 -9 -27l-101 -102q-5 -6 -12 -6q-10 0 -10 10v231z" />
      <glyph d="M39 218q-10 3 -10 14v88q0 11 10 14l359 143q10 3 10 -7v-109q0 -9 -10 -13l-191 -71v-2l191 -71q10 -4 10 -13v-109q0 -10 -10 -7z" />
      <glyph d="M39 311q-10 0 -10 10v99q0 10 10 10h359q10 0 10 -10v-99q0 -10 -10 -10h-359zM39 122q-10 0 -10 10v99q0 10 10 10h359q10 0 10 -10v-99q0 -10 -10 -10h-359z" />
      <glyph d="M39 75q-10 -3 -10 7v109q0 9 10 13l190 71v2l-190 71q-10 4 -10 13v109q0 10 10 7l359 -143q10 -3 10 -14v-88q0 -11 -10 -14z" />
      <glyph d="M136 208q-10 0 -10 10v44q0 24 6.5 42.5t20.5 40.5l50 79q8 13 13.5 23t8.5 20t4.5 21t1.5 25q0 17 -3 28q-8 21 -30 21q-24 0 -31 -21q-2 -5 -2.5 -14.5t-0.5 -38.5q0 -12 -12 -10l-124 13q-10 1 -10 12q0 28 2 45t7 31q17 53 61 82t112 29q70 0 113 -30t60 -81
q9 -29 9 -66q0 -32 -9 -60t-30 -62l-50 -79q-11 -17 -16 -29.5t-5 -28.5v-36q0 -10 -10 -10h-126zM131 145q0 10 10 10h121q10 0 10 -10v-135q0 -10 -10 -10h-121q-10 0 -10 10v135z" />
      <glyph d="M50 70q-5 15 -8.5 32t-6 40t-4 54t-1.5 74q0 42 1.5 73t4 53.5t6 39.5t8.5 32q16 50 46 89t70.5 66t90 41t106.5 14q56 0 105.5 -14t90 -41t70 -66t46.5 -89q5 -15 8.5 -32t6 -39.5t4 -53.5t1.5 -73q0 -29 -0.5 -49t-2 -33.5t-3.5 -23t-5 -16.5q-16 -50 -54 -71.5
t-85 -21.5q-46 0 -78 18t-48 50h-1q-12 -35 -36 -51.5t-66 -16.5q-35 0 -59.5 15t-35.5 50q-3 9 -5.5 20.5t-4 28t-2 40t-0.5 56.5t0.5 56.5t2 40.5t3.5 28.5t5 20.5q12 35 34.5 50t57.5 15q31 0 48.5 -12t29.5 -36h2v30q0 10 10 10h104q10 0 10 -10v-263q0 -17 8 -26t22 -9
q20 0 27 18q1 2 1.5 5.5t1 12.5t0.5 26.5v47.5q0 40 -1 67.5t-3 46.5t-5 31t-6 23q-20 63 -71.5 97t-126.5 34q-76 0 -127.5 -34t-71.5 -97q-3 -11 -6 -23t-5 -31t-3 -46.5t-1 -67.5q0 -41 1 -68.5t3 -46t5 -31.5t6 -23q20 -64 71.5 -97.5t127.5 -33.5q46 0 81.5 10t66.5 31
q9 5 14 -3l50 -68q5 -9 -3 -14q-42 -30 -95 -48t-114 -18q-57 0 -106.5 14t-90 41t-70.5 66t-46 89zM336 181q6 -19 27 -19q20 0 26 19q1 3 1.5 6.5t1 12t0.5 24v41.5v41.5t-0.5 24.5t-1 12.5t-1.5 6.5q-6 19 -26 19q-21 0 -27 -19q-1 -3 -1.5 -6.5t-1 -12.5t-0.5 -24.5
v-41.5v-41.5t0.5 -24t1 -12t1.5 -6.5z" />
      <glyph d="M156 670q3 10 12 10h155q10 0 12 -10l146 -660q3 -10 -8 -10h-138q-10 0 -12 10l-18 107h-121l-19 -107q-2 -10 -11 -10h-139q-10 0 -8 10zM284 236l-37 221h-2l-40 -221h79z" />
      <glyph d="M37 670q0 10 10 10h198q100 0 145 -44t45 -132q0 -65 -20.5 -98.5t-58.5 -50.5v-2q38 -11 62.5 -47t24.5 -107q0 -110 -52 -154.5t-152 -44.5h-192q-10 0 -10 10v660zM224 407q31 0 42.5 15t11.5 59q0 43 -11.5 58t-42.5 15h-22q-6 0 -6 -6v-135q0 -6 6 -6h22zM196 132
q0 -6 6 -6h21q34 0 47.5 17t13.5 65t-13.5 64.5t-47.5 16.5h-21q-6 0 -6 -6v-151z" />
      <glyph d="M45 113q-4 12 -6.5 26t-4.5 38.5t-3 63t-1 99.5t1 99.5t3 63t4.5 38.5t6.5 26q40 123 185 123q94 0 142.5 -48.5t53.5 -133.5q0 -11 -8 -12l-134 -22q-11 -2 -11 9q-1 35 -11 50t-30 15q-26 0 -34 -24q-2 -5 -2.5 -12t-1.5 -25t-1 -52.5v-94.5v-94.5t1 -52.5t1.5 -25
t2.5 -12q8 -24 34 -24q20 0 30 15t11 50q0 11 11 9l134 -22q8 -1 8 -12q-5 -85 -53.5 -133.5t-142.5 -48.5q-145 0 -185 123z" />
      <glyph d="M37 670q0 10 10 10h189q75 0 121.5 -28t66.5 -89q4 -14 8 -31.5t6 -43t3.5 -61.5t1.5 -87t-1.5 -87t-3.5 -61.5t-6 -43t-8 -31.5q-20 -61 -66.5 -89t-121.5 -28h-189q-10 0 -10 10v660zM196 148q0 -6 6 -6h19q40 0 51 32q2 7 4 16.5t3 27.5t1.5 47t0.5 75t-0.5 75
t-1.5 47t-3 27.5t-4 16.5q-11 32 -51 32h-19q-6 0 -6 -6v-384z" />
      <glyph d="M37 670q0 10 10 10h318q10 0 10 -10v-122q0 -10 -10 -10h-163q-6 0 -6 -6v-112q0 -6 6 -6h140q10 0 10 -10v-122q0 -10 -10 -10h-140q-6 0 -6 -6v-118q0 -6 6 -6h163q10 0 10 -10v-122q0 -10 -10 -10h-318q-10 0 -10 10v660z" />
      <glyph d="M37 670q0 10 10 10h318q10 0 10 -10v-122q0 -10 -10 -10h-163q-6 0 -6 -6v-120q0 -6 6 -6h140q10 0 10 -10v-122q0 -10 -10 -10h-140q-6 0 -6 -6v-248q0 -10 -10 -10h-139q-10 0 -10 10v660z" />
      <glyph d="M45 114q-4 13 -7 27.5t-4.5 38.5t-2.5 62t-1 98t1 98t2.5 62t4.5 38.5t7 27.5q40 124 191 124q94 0 143.5 -48.5t55.5 -132.5q0 -10 -8 -12l-134 -21q-11 -2 -11 8q-2 34 -13 49t-33 15q-14 0 -24 -7.5t-14 -18.5q-2 -5 -2.5 -12t-1.5 -25t-1 -52v-93v-92.5t1 -52
t1.5 -25.5t2.5 -11q4 -12 14.5 -19.5t26.5 -7.5q17 0 27.5 7.5t14.5 19.5q1 4 2 9t2 15t1 25.5v41.5q0 6 -6 6h-31q-10 0 -10 10v103q0 10 10 10h179q10 0 10 -10v-29q0 -60 -1 -97.5t-2.5 -61.5t-4.5 -38.5t-7 -27.5q-20 -63 -67.5 -94t-119.5 -31q-151 0 -191 124z" />
      <glyph d="M37 670q0 10 10 10h139q10 0 10 -10v-246q0 -6 6 -6h74q6 0 6 6v246q0 10 10 10h139q10 0 10 -10v-660q0 -10 -10 -10h-139q-10 0 -10 10v261q0 6 -6 6h-74q-6 0 -6 -6v-261q0 -10 -10 -10h-139q-10 0 -10 10v660z" />
      <glyph d="M37 670q0 10 10 10h139q10 0 10 -10v-660q0 -10 -10 -10h-139q-10 0 -10 10v660z" />
      <glyph d="M11 48q-7 6 1 14l84 85q8 8 17 0q17 -15 35 -15q42 0 42 51v487q0 10 10 10h139q10 0 10 -10v-472q0 -107 -52.5 -157.5t-145.5 -50.5q-44 0 -81 16t-59 42z" />
      <glyph d="M37 670q0 10 10 10h139q10 0 10 -10v-241l110 242q4 9 14 9h141q4 0 5.5 -3t-0.5 -7l-134 -262l146 -398q4 -10 -6 -10h-147q-8 0 -10 8l-85 254l-34 -74v-178q0 -10 -10 -10h-139q-10 0 -10 10v660z" />
      <glyph d="M37 670q0 10 10 10h139q10 0 10 -10v-522q0 -6 6 -6h166q10 0 10 -10v-122q0 -10 -10 -10h-321q-10 0 -10 10v660z" />
      <glyph d="M37 670q0 10 10 10h133q12 0 15 -10l93 -330h4l90 330q3 10 15 10h132q10 0 10 -10v-660q0 -10 -10 -10h-120q-10 0 -10 10v351h-5l-60 -230q-3 -10 -12 -10h-68q-9 0 -12 10l-60 230h-5v-351q0 -10 -10 -10h-120q-10 0 -10 10v660z" />
      <glyph d="M37 670q0 10 10 10h145q11 0 14 -10l105 -379h5v379q0 10 10 10h118q10 0 10 -10v-660q0 -10 -10 -10h-142q-11 0 -14 10l-107 379h-6v-379q0 -10 -10 -10h-118q-10 0 -10 10v660z" />
      <glyph d="M235 -10q-72 0 -120.5 31t-68.5 94q-4 13 -7 27.5t-5 38.5t-3 61.5t-1 97.5t1 97.5t3 61.5t5 38.5t7 27.5q20 63 68.5 94t120.5 31t121 -31t69 -94q4 -13 7 -27.5t5 -38.5t3 -61.5t1 -97.5t-1 -97.5t-3 -61.5t-5 -38.5t-7 -27.5q-20 -63 -69 -94t-121 -31zM235 132
q30 0 38 25q1 5 2 12t2 25t1 52.5v93.5v93.5t-1 52.5t-2 25t-2 12q-8 25 -38 25q-29 0 -37 -25q-2 -5 -2.5 -12t-1.5 -25t-1 -52.5v-93.5v-93.5t1 -52.5t1.5 -25t2.5 -12q8 -25 37 -25z" />
      <glyph d="M47 0q-10 0 -10 10v660q0 10 10 10h187q95 0 151.5 -52t56.5 -167q0 -59 -15.5 -100.5t-43.5 -67.5t-66 -38.5t-83 -12.5h-32q-6 0 -6 -6v-226q0 -10 -10 -10h-139zM225 376q30 0 44 17.5t14 67.5t-14 67.5t-44 17.5h-23q-6 0 -6 -6v-158q0 -6 6 -6h23z" />
      <glyph d="M235 -10q-72 0 -120.5 31t-68.5 94q-4 13 -7 27.5t-5 38.5t-3 61.5t-1 97.5t1 97.5t3 61.5t5 38.5t7 27.5q20 63 68.5 94t120.5 31t121 -31t69 -94q4 -13 7 -27.5t5 -38.5t3 -61.5t1 -97.5t-1 -97.5t-3 -61.5t-5 -38.5t-7 -27.5l-5 -13l56 -67q3 -3 2.5 -7.5t-3.5 -6.5
l-94 -72q-8 -7 -15 2l-44 53q-40 -14 -87 -14zM235 132q30 0 38 25q1 5 2 12t2 25t1 52.5v93.5v93.5t-1 52.5t-2 25t-2 12q-8 25 -38 25q-29 0 -37 -25q-2 -5 -2.5 -12t-1.5 -25t-1 -52.5v-93.5v-93.5t1 -52.5t1.5 -25t2.5 -12q8 -25 37 -25z" />
      <glyph d="M307 0q-10 0 -13 9l-69 245h-23q-6 0 -6 -6v-238q0 -10 -10 -10h-139q-10 0 -10 10v660q0 10 10 10h191q46 0 83.5 -12t64.5 -38t41.5 -67t14.5 -98q0 -63 -19 -104.5t-52 -67.5l89 -283q4 -10 -5 -10h-148zM225 385q30 0 44 17t14 63q0 47 -14 64t-44 17h-23q-6 0 -6 -6
v-149q0 -6 6 -6h23z" />
      <glyph d="M425 210q0 -110 -49.5 -165t-155.5 -55q-52 0 -89.5 13.5t-61.5 38t-36 59t-12 76.5q0 11 8 12l132 21q11 2 11 -9q1 -74 48 -74q22 0 33 14t11 49q0 34 -12 50.5t-49 30.5l-41 16q-36 14 -61.5 32t-42 42t-24 56t-7.5 74q0 97 47.5 148t146.5 51q96 0 144.5 -46.5
t51.5 -127.5q0 -10 -9 -11l-126 -19q-11 -2 -11 8q-1 59 -44 59q-41 0 -41 -51q0 -15 2.5 -25t9.5 -18t19 -15t32 -15l41 -16q36 -14 62 -31.5t42 -41.5t23.5 -56t7.5 -74z" />
      <glyph d="M150 0q-10 0 -10 10v522q0 6 -6 6h-112q-10 0 -10 10v122q0 10 10 10h395q10 0 10 -10v-122q0 -10 -10 -10h-112q-6 0 -6 -6v-522q0 -10 -10 -10h-139z" />
      <glyph d="M236 -10q-92 0 -146 52t-54 155v473q0 10 10 10h139q10 0 10 -10v-491q0 -47 41 -47t41 47v491q0 10 10 10h139q10 0 10 -10v-473q0 -103 -54 -155t-146 -52z" />
      <glyph d="M159 0q-9 0 -12 10l-137 660q-2 10 9 10h143q9 0 12 -10l57 -399h3l55 399q3 10 12 10h141q11 0 8 -10l-137 -660q-3 -10 -11 -10h-143z" />
      <glyph d="M391 0q-9 0 -11 10l-52 368h-2l-52 -368q-3 -10 -12 -10h-124q-8 0 -11 10l-116 660q-3 10 8 10h143q9 0 11 -10l42 -396h3l51 396q2 10 11 10h93q9 0 12 -10l53 -396h2l41 396q3 10 12 10h141q11 0 8 -10l-116 -660q-2 -10 -11 -10h-124z" />
      <glyph d="M293 0q-8 0 -11 10l-55 169h-1l-56 -169q-3 -10 -12 -10h-140q-11 0 -8 10l133 342l-124 318q-3 10 8 10h142q8 0 11 -10l46 -157h2l46 157q3 10 12 10h139q11 0 8 -10l-123 -318l133 -342q3 -10 -8 -10h-142z" />
      <glyph d="M151 0q-10 0 -10 10v249l-134 411q-3 10 8 10h137q10 0 12 -10l57 -234h3l55 234q2 10 12 10h135q11 0 8 -10l-134 -411v-249q0 -10 -10 -10h-139z" />
      <glyph d="M37 0q-10 0 -10 10v117q0 3 1 5.5t2 4.5l171 399v2h-155q-10 0 -10 10v122q0 10 10 10h314q10 0 10 -10v-118q0 -6 -3 -10l-173 -398v-2h166q10 0 10 -10v-122q0 -10 -10 -10h-323z" />
      <glyph d="M59 -84q-10 0 -10 10v804q0 10 10 10h175q10 0 10 -10v-91q0 -10 -10 -10h-49q-6 0 -6 -6v-590q0 -6 6 -6h49q10 0 10 -10v-91q0 -10 -10 -10h-175z" />
      <glyph d="M153 -10q-11 0 -13 10l-124 680q-2 10 8 10h107q11 0 13 -10l124 -680q2 -10 -8 -10h-107z" />
      <glyph d="M43 -84q-10 0 -10 10v91q0 10 10 10h49q6 0 6 6v590q0 6 -6 6h-49q-10 0 -10 10v91q0 10 10 10h175q10 0 10 -10v-804q0 -10 -10 -10h-175z" />
      <glyph d="M291 258q-9 0 -13 10l-58 216h-2l-58 -216q-4 -10 -13 -10h-116q-10 0 -7 10l130 402q3 10 14 10h101q11 0 14 -10l130 -402q3 -10 -7 -10h-115z" />
      <glyph d="M0 -159v95h456v-95h-456z" />
      <glyph d="M222 546q-11 0 -18 10l-97 136q-3 4 -1.5 7t6.5 3h121q10 0 16 -10l75 -136q5 -10 -6 -10h-96z" />
      <glyph d="M240 0q-10 0 -10 10v29h-1q-11 -23 -35 -36t-56 -13q-23 0 -44 7.5t-37.5 25t-26 45.5t-9.5 69q0 46 13.5 76t36 48t51 25t58.5 7h44q6 0 6 6v22q0 26 -12 38.5t-47 12.5q-26 0 -45.5 -7t-34.5 -18q-12 -8 -15 3l-39 93q-3 10 5 15q28 18 66 28.5t86 10.5q51 0 85 -11
t55 -32.5t30 -54.5t9 -77v-312q0 -10 -10 -10h-123zM190 102q18 0 29 12.5t11 35.5v42q0 6 -6 6h-21q-26 0 -36.5 -13.5t-10.5 -36.5q0 -46 34 -46z" />
      <glyph d="M283 -10q-36 0 -60 15.5t-37 42.5h-1v-38q0 -10 -10 -10h-130q-10 0 -10 10v660q0 10 10 10h131q10 0 10 -10v-231h1q14 27 37 42.5t59 15.5q44 0 69 -18t39 -59q4 -12 6.5 -25.5t4.5 -34t3 -49t1 -68.5t-1 -68t-3 -48.5t-4.5 -34t-6.5 -25.5q-14 -41 -39 -59t-69 -18z
M221 118q22 0 30 22q1 3 2 7.5t1.5 15t0.5 29.5v51v51t-0.5 29.5t-1.5 15.5t-2 8q-8 22 -30 22q-23 0 -31 -22q-1 -3 -2 -8t-1.5 -15.5t-0.5 -29.5v-51v-51t0.5 -29.5t1.5 -15t2 -7.5q8 -22 31 -22z" />
      <glyph d="M202 -10q-63 0 -105 27t-60 82q-4 11 -6.5 23t-4 28.5t-2 38.5t-0.5 54t0.5 54.5t2 39t4 28.5t6.5 23q18 55 60 82t105 27q74 0 121 -38.5t52 -108.5q0 -9 -8 -12l-116 -20q-12 -2 -12 9q-2 23 -10 32.5t-22 9.5q-22 0 -28 -20q-1 -3 -2 -7.5t-1.5 -15.5t-0.5 -30.5
v-52.5v-52t0.5 -30t1.5 -15.5t2 -7.5q6 -20 28 -20q14 0 22 9.5t10 32.5q0 11 12 9l116 -20q8 -3 8 -12q-5 -70 -52 -108.5t-121 -38.5z" />
      <glyph d="M258 0q-10 0 -10 10v38h-1q-13 -27 -37 -42.5t-60 -15.5q-44 0 -69 18t-39 59q-4 12 -6.5 25.5t-4.5 34t-3 48.5t-1 68t1 68.5t3 49t4.5 34t6.5 25.5q14 41 39 59t69 18q36 0 59 -15.5t37 -42.5h1v231q0 10 10 10h131q10 0 10 -10v-660q0 -10 -10 -10h-130zM213 118
q22 0 30 22q1 3 2 7.5t1.5 15t0.5 29.5v51v51t-0.5 29.5t-1.5 15.5t-2 8q-8 22 -30 22q-23 0 -31 -22q-1 -3 -2 -8t-1.5 -15.5t-0.5 -29.5v-51v-51t0.5 -29.5t1.5 -15t2 -7.5q8 -22 31 -22z" />
      <glyph d="M204 -10q-67 0 -108.5 28.5t-58.5 81.5q-3 10 -5.5 22t-4 28t-2.5 38.5t-1 54.5t1 54.5t2.5 39t4 28t5.5 22.5q17 53 58.5 81.5t108.5 28.5t108.5 -28.5t58.5 -81.5q3 -11 6 -22.5t4.5 -30.5t2.5 -49t1 -77q0 -10 -10 -10h-195q-6 0 -6 -6q0 -31 0.5 -40.5t2.5 -15.5
q7 -21 31 -21q27 0 37 31q3 9 12 8l115 -23q9 -1 7 -12q-12 -63 -59 -96t-116 -33zM236 293q6 0 6 6q0 32 -1 43.5t-3 17.5q-6 21 -30 21t-30 -21q-2 -6 -3 -17.5t-1 -43.5q0 -6 6 -6h56z" />
      <glyph d="M73 0q-10 0 -10 10v360q0 6 -6 6h-31q-10 0 -10 10v91q0 10 10 10h31q6 0 6 6v18q0 88 44.5 128.5t136.5 40.5h35q10 0 10 -10v-107q0 -10 -10 -10h-26q-21 0 -30 -8.5t-9 -26.5v-25q0 -6 6 -6h59q10 0 10 -10v-91q0 -10 -10 -10h-59q-6 0 -6 -6v-360q0 -10 -10 -10h-131
z" />
      <glyph d="M211 -190q-73 0 -118.5 36t-51.5 91q0 10 6 11l120 26q8 3 11 -6q8 -31 35 -31q17 0 25.5 10t8.5 34v93h-1q-14 -27 -37 -42.5t-59 -15.5q-44 0 -69 18t-39 59q-4 12 -6.5 25.5t-4.5 32.5t-3 44.5t-1 60.5t1 60.5t3 44.5t4.5 32.5t6.5 25.5q14 41 39 59t69 18
q36 0 60 -15.5t37 -42.5h1v39q0 10 10 10h130q10 0 10 -10v-478q0 -96 -50 -142.5t-137 -46.5zM213 143q22 0 30 22q1 3 2 7.5t1.5 14t0.5 26v43.5v43.5t-0.5 26t-1.5 14t-2 7.5q-8 22 -30 22q-23 0 -31 -22q-1 -3 -2 -7.5t-1.5 -14t-0.5 -26v-43.5v-43.5t0.5 -26t1.5 -14
t2 -7.5q8 -22 31 -22z" />
      <glyph d="M261 0q-10 0 -10 10v311q0 45 -32 45q-33 0 -33 -45v-311q0 -10 -10 -10h-131q-10 0 -10 10v660q0 10 10 10h131q10 0 10 -10v-230h1q13 25 37 41t61 16q63 0 90 -36t27 -114v-337q0 -10 -10 -10h-131z" />
      <glyph d="M45 550q-10 0 -10 10v110q0 10 10 10h131q10 0 10 -10v-110q0 -10 -10 -10h-131zM45 0q-10 0 -10 10v467q0 10 10 10h131q10 0 10 -10v-467q0 -10 -10 -10h-131z" />
      <glyph d="M45 550q-10 0 -10 10v110q0 10 10 10h131q10 0 10 -10v-110q0 -10 -10 -10h-131zM-20 -180q-10 0 -10 10v110q0 10 10 10l14 1q22 2 31.5 13.5t9.5 43.5v469q0 10 10 10h131q10 0 10 -10v-463q0 -194 -185 -194h-21z" />
      <glyph d="M287 0q-10 0 -15 11l-59 182l-27 -50v-133q0 -10 -10 -10h-131q-10 0 -10 10v660q0 10 10 10h131q10 0 10 -10v-339l80 147q4 9 14 9h135q5 0 6 -3t-1 -6l-107 -165l116 -304q2 -3 0.5 -6t-6.5 -3h-136z" />
      <glyph d="M210 -6q-46 0 -79 9t-54.5 30t-31.5 55.5t-10 85.5v496q0 10 10 10h131q10 0 10 -10v-495q0 -25 10.5 -36.5t28.5 -13.5l6 -1q10 0 10 -11v-109q0 -10 -10 -10h-21z" />
      <glyph d="M477 0q-10 0 -10 10v311q0 45 -32 45q-33 0 -33 -45v-311q0 -10 -10 -10h-131q-10 0 -10 10v311q0 45 -32 45q-33 0 -33 -45v-311q0 -10 -10 -10h-131q-10 0 -10 10v467q0 10 10 10h130q10 0 10 -10v-37h1q13 25 37.5 41t61.5 16q74 0 100 -54h1q14 23 40 38.5t66 15.5
q64 0 95 -36.5t31 -113.5v-337q0 -10 -10 -10h-131z" />
      <glyph d="M261 0q-10 0 -10 10v311q0 45 -32 45q-33 0 -33 -45v-311q0 -10 -10 -10h-131q-10 0 -10 10v467q0 10 10 10h130q10 0 10 -10v-37h1q13 25 37.5 41t61.5 16q63 0 90 -36t27 -114v-337q0 -10 -10 -10h-131z" />
      <glyph d="M209 -10q-66 0 -110 28.5t-62 85.5q-3 11 -5.5 22.5t-4 27t-2.5 37t-1 52.5t1 52.5t2.5 37.5t4 27.5t5.5 22.5q18 57 62 85.5t110 28.5q134 0 172 -114q3 -11 5.5 -22.5t4 -27.5t2.5 -37.5t1 -52.5t-1 -52.5t-2.5 -37t-4 -27t-5.5 -22.5q-38 -114 -172 -114zM209 118
q24 0 30 22q1 3 2 7.5t1.5 15t0.5 29.5v51v51.5t-0.5 30t-1.5 15t-2 7.5q-6 22 -30 22t-30 -22q-1 -3 -2 -7.5t-1.5 -15t-0.5 -30v-51.5v-51t0.5 -29.5t1.5 -15t2 -7.5q6 -22 30 -22z" />
      <glyph d="M45 -180q-10 0 -10 10v647q0 10 10 10h130q10 0 10 -10v-38h1q13 27 37 42.5t60 15.5q44 0 69 -18t39 -59q4 -12 6.5 -25.5t4.5 -34t3 -49t1 -68.5t-1 -68t-3 -48.5t-4.5 -34t-6.5 -25.5q-14 -41 -39 -59t-69 -18q-36 0 -59 15.5t-37 42.5h-1v-218q0 -10 -10 -10h-131z
M221 118q22 0 30 22q1 3 2 7.5t1.5 15t0.5 29.5v51v51t-0.5 29.5t-1.5 15.5t-2 8q-8 22 -30 22q-23 0 -31 -22q-1 -3 -2 -8t-1.5 -15.5t-0.5 -29.5v-51v-51t0.5 -29.5t1.5 -15t2 -7.5q8 -22 31 -22z" />
      <glyph d="M257 -180q-10 0 -10 10v218h-1q-14 -27 -37 -42.5t-59 -15.5q-44 0 -69 18t-39 59q-4 12 -6.5 25.5t-4.5 34t-3 48.5t-1 68t1 68.5t3 49t4.5 34t6.5 25.5q14 41 39 59t69 18q36 0 60 -15.5t37 -42.5h1v38q0 10 10 10h130q10 0 10 -10v-647q0 -10 -10 -10h-131zM213 118
q22 0 30 22q1 3 2 7.5t1.5 15t0.5 29.5v51v51t-0.5 29.5t-1.5 15.5t-2 8q-8 22 -30 22q-23 0 -31 -22q-1 -3 -2 -8t-1.5 -15.5t-0.5 -29.5v-51v-51t0.5 -29.5t1.5 -15t2 -7.5q8 -22 31 -22z" />
      <glyph d="M45 0q-10 0 -10 10v467q0 10 10 10h131q10 0 10 -10v-43h1q30 63 118 63h5.5t5.5 -1q9 0 8 -9l-22 -131q-1 -7 -10 -6q-4 1 -9 1h-11q-42 0 -64 -24t-22 -83v-234q0 -10 -10 -10h-131z" />
      <glyph d="M190 -10q-81 0 -125 35t-49 97q-2 9 8 11l113 19q10 2 12 -8q6 -42 40 -42q17 0 26 9.5t9 25.5t-8.5 24.5t-29.5 15.5l-39 13q-65 22 -94 58.5t-29 94.5q0 70 43.5 112t124.5 42q75 0 116.5 -34.5t46.5 -86.5q1 -11 -6 -12l-107 -18q-8 -2 -10 6q-3 15 -11 24t-25 9
q-16 0 -23.5 -8.5t-7.5 -21.5q0 -11 8 -19.5t30 -16.5l39 -13q70 -23 96.5 -59.5t26.5 -95.5q0 -76 -45.5 -118.5t-129.5 -42.5z" />
      <glyph d="M230 -6q-43 0 -74.5 7t-52.5 26t-31 51.5t-10 82.5v209q0 6 -6 6h-32q-10 0 -10 10v91q0 10 10 10h32q6 0 6 6v127q0 10 10 10h131q10 0 10 -10v-127q0 -6 6 -6h49q10 0 10 -10v-91q0 -10 -10 -10h-49q-6 0 -6 -6v-201q0 -25 10 -34.5t30 -9.5h15q10 0 10 -10v-111
q0 -10 -10 -10h-38z" />
      <glyph d="M259 0q-10 0 -10 10v37h-1q-13 -25 -37 -41t-62 -16q-61 0 -88.5 36t-27.5 114v337q0 10 10 10h131q10 0 10 -10v-312q0 -44 32 -44t32 44v312q0 10 10 10h131q10 0 10 -10v-467q0 -10 -10 -10h-130z" />
      <glyph d="M137 0q-9 0 -12 10l-116 467q-3 10 7 10h129q9 0 11 -10l47 -273h1l47 273q2 10 11 10h124q10 0 7 -10l-115 -467q-3 -10 -12 -10h-129z" />
      <glyph d="M350 0q-11 0 -12 10l-41 235h-2l-40 -235q-1 -10 -12 -10h-111q-9 0 -12 10l-110 467q-3 10 7 10h126q9 0 11 -10l43 -266h2l43 266q2 10 11 10h88q9 0 11 -10l43 -266h1l44 266q2 10 11 10h126q10 0 7 -10l-111 -467q-3 -10 -12 -10h-111z" />
      <glyph d="M268 0q-9 0 -13 8l-51 127h-1l-52 -127q-4 -8 -13 -8h-125q-5 0 -6.5 3t0.5 7l119 241l-111 226q-2 4 -1 7t6 3h127q9 0 13 -8l45 -112h1l43 112q4 8 14 8h124q5 0 6.5 -3t-0.5 -7l-112 -226l120 -241q2 -4 0.5 -7t-6.5 -3h-127z" />
      <glyph d="M61 -180q-10 0 -10 10v111q0 10 10 10h14q27 1 40 10.5t18 32.5l5 22l-128 461q-3 10 8 10h127q10 0 12 -10l46 -254h2l49 254q2 10 12 10h121q11 0 8 -10l-131 -491q-13 -49 -29.5 -81t-38.5 -51t-51.5 -26.5t-69.5 -7.5h-14z" />
      <glyph d="M30 0q-10 0 -10 10v102q0 5 3 11l145 237v2h-127q-10 0 -10 10v105q0 10 10 10h280q10 0 10 -10v-99q0 -7 -3 -11l-145 -239v-2h138q10 0 10 -10v-106q0 -10 -10 -10h-291z" />
      <glyph d="M245 -84q-66 0 -100.5 34t-34.5 102v148q0 38 -12 54t-44 16q-10 0 -10 10v100q0 10 10 10q32 0 44 16t12 54v144q0 68 34.5 102t100.5 34h47q10 0 10 -10v-91q0 -10 -10 -10h-11q-21 0 -31.5 -12.5t-10.5 -33.5v-119q0 -56 -11 -85.5t-45 -46.5v-4q34 -17 45 -46t11 -85
v-124q0 -21 10.5 -33.5t31.5 -12.5h11q10 0 10 -10v-91q0 -10 -10 -10h-47z" />
      <glyph d="M79 -84q-10 0 -10 10v804q0 10 10 10h106q10 0 10 -10v-804q0 -10 -10 -10h-106z" />
      <glyph d="M42 -84q-10 0 -10 10v91q0 10 10 10h11q21 0 31.5 12.5t10.5 33.5v124q0 28 2.5 49t8.5 36t17 26t28 20v4q-17 9 -28 20t-17 26.5t-8.5 36.5t-2.5 49v119q0 21 -10.5 33.5t-31.5 12.5h-11q-10 0 -10 10v91q0 10 10 10h47q66 0 100.5 -34t34.5 -102v-144q0 -38 12 -54
t44 -16q10 0 10 -10v-100q0 -10 -10 -10q-32 0 -44 -16t-12 -54v-148q0 -68 -34.5 -102t-100.5 -34h-47z" />
      <glyph d="M288 176q-20 0 -37 7t-34 16q-16 9 -29 15t-25 6q-15 0 -24.5 -8t-22.5 -31q-4 -7 -13 -3l-73 37q-8 5 -4 14q23 50 52 74t70 24q21 0 38 -6.5t34 -15.5l29 -14.5t24 -6.5q15 0 25 7.5t23 30.5q3 9 13 4l73 -37q8 -5 4 -14q-23 -50 -52 -74.5t-71 -24.5z" />
      <glyph d="M242 -10q-70 0 -111 28.5t-58 82.5q-3 10 -5.5 21.5t-4 26t-2.5 34t-1 45.5q0 6 -6 6h-33q-10 0 -10 10v66q0 10 10 10h33q6 0 6 6v30q0 6 -6 6h-33q-10 0 -10 10v65q0 10 10 10h33q6 0 6 6q0 52 3 79t10 47q17 54 58 82.5t111 28.5q87 0 131 -42t49 -113q1 -11 -9 -12
l-123 -20q-10 -2 -12 9q-2 26 -9.5 38t-24.5 12q-21 0 -29 -21q-1 -4 -2 -8.5t-1.5 -13.5t-0.5 -24.5v-41.5q0 -6 6 -6h126q10 0 10 -10l-10 -65q-1 -10 -10 -10h-116q-6 0 -6 -6v-30q0 -6 6 -6h111q10 0 10 -10l-10 -66q-1 -10 -10 -10h-101q-6 0 -6 -6v-42t0.5 -25
t1.5 -13.5t2 -8.5q8 -21 29 -21q17 0 24.5 12t9.5 38q2 11 12 9l123 -20q10 -2 9 -12q-5 -71 -49 -113t-131 -42z" />
      <glyph d="M45 -97q-10 0 -10 10v201q0 10 10 10h98q10 0 10 -10v-96q0 -16 -9 -25l-87 -84q-5 -6 -12 -6z" />
      <glyph d="M298 307l-43 -321q-12 -88 -58 -127t-137 -39h-30q-10 0 -10 10v104q0 10 10 10h14q29 0 43.5 11t18.5 38l43 314h-58q-10 0 -10 10v93q0 10 10 10h73l13 94q12 88 58 127t137 39h30q10 0 10 -10v-104q0 -10 -10 -10h-14q-29 0 -43.5 -11t-18.5 -38l-12 -87h61
q10 0 10 -10v-93q0 -10 -10 -10h-77z" />
      <glyph d="M201 -97q-11 0 -11 10v201q0 10 10 10h99q10 0 10 -10v-96q0 -15 -10 -25l-86 -84q-6 -6 -12 -6zM45 -97q-10 0 -10 10v201q0 10 10 10h98q10 0 10 -10v-96q0 -16 -9 -25l-87 -84q-5 -6 -12 -6z" />
      <glyph d="M486 0q-10 0 -10 10v135q0 10 10 10h121q10 0 10 -10v-135q0 -10 -10 -10h-121zM268 0q-10 0 -10 10v135q0 10 10 10h120q10 0 10 -10v-135q0 -10 -10 -10h-120zM49 0q-10 0 -10 10v135q0 10 10 10h121q10 0 10 -10v-135q0 -10 -10 -10h-121z" />
      <glyph d="M190 -180q-10 0 -10 10v496q0 6 -6 6h-114q-10 0 -10 10v118q0 10 10 10h114q6 0 6 6v194q0 10 10 10h129q10 0 10 -10v-194q0 -6 6 -6h114q10 0 10 -10v-118q0 -10 -10 -10h-114q-6 0 -6 -6v-496q0 -10 -10 -10h-129z" />
      <glyph d="M190 -180q-10 0 -10 10v170q0 6 -6 6h-114q-10 0 -10 10v118q0 10 10 10h114q6 0 6 6v200q0 6 -6 6h-114q-10 0 -10 10v118q0 10 10 10h114q6 0 6 6v170q0 10 10 10h129q10 0 10 -10v-170q0 -6 6 -6h114q10 0 10 -10v-118q0 -10 -10 -10h-114q-6 0 -6 -6v-200q0 -6 6 -6
h114q10 0 10 -10v-118q0 -10 -10 -10h-114q-6 0 -6 -6v-170q0 -10 -10 -10h-129z" />
      <glyph d="M289 545q-10 0 -19 10l-47 56h-2l-47 -56q-9 -10 -19 -10h-81q-5 0 -6 3t2 7l94 136q7 10 17 10h82q10 0 17 -10l93 -136q3 -4 2 -7t-6 -3h-80z" />
      <glyph d="M199 -10q-10 0 -7 10l254 680q3 10 14 10h81q10 0 7 -10l-254 -680q-3 -10 -13 -10h-82zM176 329q-45 0 -74 19.5t-40 53.5q-2 7 -3.5 15t-2.5 19.5t-1.5 28.5t-0.5 43q0 27 0.5 44t1.5 28.5t2.5 19t3.5 15.5q11 33 40 52.5t74 19.5q46 0 74.5 -19.5t39.5 -52.5
q2 -8 3.5 -15.5t2.5 -19t1.5 -28.5t0.5 -44q0 -26 -0.5 -43t-1.5 -28.5t-2.5 -19.5t-3.5 -15q-11 -34 -39.5 -53.5t-74.5 -19.5zM176 411q15 0 19 13q1 2 1.5 6t1 13t0.5 24.5v40.5v40.5t-0.5 24.5t-1 13t-1.5 6q-4 13 -19 13t-19 -13q-1 -2 -1.5 -6t-1 -13t-0.5 -24.5
v-40.5v-40.5t0.5 -24.5t1 -13t1.5 -6q4 -13 19 -13zM851 -7q-45 0 -74 19.5t-40 53.5q-2 7 -3.5 15t-2.5 19.5t-1.5 28.5t-0.5 43q0 27 0.5 44t1.5 28.5t2.5 19t3.5 15.5q11 33 40 52.5t74 19.5q46 0 74.5 -19.5t39.5 -52.5q2 -8 3.5 -15.5t2.5 -19t1.5 -28.5t0.5 -44
q0 -26 -0.5 -43t-1.5 -28.5t-2.5 -19.5t-3.5 -15q-11 -34 -39.5 -53.5t-74.5 -19.5zM564 -7q-45 0 -74 19.5t-40 53.5q-2 7 -3.5 15t-2.5 19.5t-1.5 28.5t-0.5 43q0 27 0.5 44t1.5 28.5t2.5 19t3.5 15.5q11 33 40 52.5t74 19.5q46 0 74.5 -19.5t39.5 -52.5q2 -8 3.5 -15.5
t2.5 -19t1.5 -28.5t0.5 -44q0 -26 -0.5 -43t-1.5 -28.5t-2.5 -19.5t-3.5 -15q-11 -34 -39.5 -53.5t-74.5 -19.5zM851 75q15 0 19 13q1 2 1.5 6t1 13t0.5 24.5v40.5v40.5t-0.5 24.5t-1 13t-1.5 6q-4 13 -19 13t-19 -13q-1 -2 -1.5 -6t-1 -13t-0.5 -24.5v-40.5v-40.5
t0.5 -24.5t1 -13t1.5 -6q4 -13 19 -13zM564 75q15 0 19 13q1 2 1.5 6t1 13t0.5 24.5v40.5v40.5t-0.5 24.5t-1 13t-1.5 6q-4 13 -19 13t-19 -13q-1 -2 -1.5 -6t-1 -13t-0.5 -24.5v-40.5v-40.5t0.5 -24.5t1 -13t1.5 -6q4 -13 19 -13z" />
      <glyph d="M425 210q0 -110 -49.5 -165t-155.5 -55q-52 0 -89.5 13.5t-61.5 38t-36 59t-12 76.5q0 11 8 12l132 21q11 2 11 -9q1 -74 48 -74q22 0 33 14t11 49q0 34 -12 50.5t-49 30.5l-41 16q-36 14 -61.5 32t-42 42t-24 56t-7.5 74q0 97 47.5 148t146.5 51q96 0 144.5 -46.5
t51.5 -127.5q0 -10 -9 -11l-126 -19q-11 -2 -11 8q-1 59 -44 59q-41 0 -41 -51q0 -15 2.5 -25t9.5 -18t19 -15t32 -15l41 -16q36 -14 62 -31.5t42 -41.5t23.5 -56t7.5 -74zM179 734q-10 0 -17 10l-94 137q-3 4 -2 7t6 3h81q10 0 19 -10l47 -56h2l47 56q9 10 19 10h80
q5 0 6 -3t-2 -7l-93 -137q-7 -10 -17 -10h-82z" />
      <glyph d="M28 257q-7 7 0 14l194 201q3 3 6.5 2t3.5 -6v-125q0 -9 -10 -19l-53 -56q-4 -4 0 -8l53 -56q10 -10 10 -19v-125q0 -5 -3.5 -6t-6.5 2z" />
      <glyph d="M289 0q-10 0 -10 10v14h-1q-9 -14 -31.5 -24t-57.5 -10q-110 0 -144 108q-4 12 -7 29t-4.5 44.5t-2.5 68t-1 100.5t1 100.5t2.5 68t4.5 44.5t7 29q34 108 144 108q35 0 57.5 -10t31.5 -24h1v14q0 10 10 10h317q10 0 10 -10v-122q0 -10 -10 -10h-163q-6 0 -6 -6v-112
q0 -6 6 -6h140q10 0 10 -10v-122q0 -10 -10 -10h-140q-6 0 -6 -6v-118q0 -6 6 -6h163q10 0 10 -10v-122q0 -10 -10 -10h-317zM235 132q30 0 38 25q1 5 2 11.5t2 24.5t1 52.5v94.5v94.5t-1 52.5t-2 24.5t-2 11.5q-8 25 -38 25q-29 0 -37 -25q-2 -5 -2.5 -11.5t-1.5 -24.5
t-1 -52.5v-94.5v-94.5t1 -52.5t1.5 -24.5t2.5 -11.5q8 -25 37 -25z" />
      <glyph d="M161 734q-10 0 -17 10l-94 137q-3 4 -2 7t6 3h81q10 0 19 -10l47 -56h2l47 56q9 10 19 10h80q5 0 6 -3t-2 -7l-93 -137q-7 -10 -17 -10h-82zM37 0q-10 0 -10 10v117q0 3 1 5.5t2 4.5l171 399v2h-155q-10 0 -10 10v122q0 10 10 10h314q10 0 10 -10v-118q0 -6 -3 -10
l-173 -398v-2h166q10 0 10 -10v-122q0 -10 -10 -10h-323z" />
      <glyph d="M45 460q-10 0 -10 10v96q0 14 9 25l87 84q4 6 12 6q10 0 10 -10v-201q0 -10 -10 -10h-98z" />
      <glyph d="M45 459q-10 0 -10 10v201q0 10 10 10h98q10 0 10 -10v-96q0 -16 -9 -25l-87 -85q-5 -5 -12 -5z" />
      <glyph d="M200 460q-10 0 -10 10v96q0 15 10 25l86 84q6 6 12 6q11 0 11 -10v-201q0 -10 -10 -10h-99zM45 460q-10 0 -10 10v96q0 14 9 25l87 84q4 6 12 6q10 0 10 -10v-201q0 -10 -10 -10h-98z" />
      <glyph d="M201 459q-11 0 -11 10v201q0 10 10 10h99q10 0 10 -10v-96q0 -15 -10 -25l-86 -85q-7 -5 -12 -5zM45 459q-10 0 -10 10v201q0 10 10 10h98q10 0 10 -10v-96q0 -16 -9 -25l-87 -85q-5 -5 -12 -5z" />
      <glyph d="M214 156q-33 0 -61 11.5t-48.5 32t-32 48t-11.5 60.5t11.5 60.5t32 48t48.5 32t61 11.5q32 0 60 -11.5t48.5 -32t32 -48t11.5 -60.5t-11.5 -60.5t-32 -48t-48.5 -32t-60 -11.5z" />
      <glyph d="M22 206q-10 0 -10 10v99q0 10 10 10h401q10 0 10 -10v-99q0 -10 -10 -10h-401z" />
      <glyph d="M22 206q-10 0 -10 10v99q0 10 10 10h599q10 0 10 -10v-99q0 -10 -10 -10h-599z" />
      <glyph d="M276 548q-19 0 -32.5 6t-27.5 14q-13 8 -24 13t-26 5q-20 0 -34 -8.5t-28 -22.5q-4 -4 -7.5 -3t-3.5 6v87q0 9 7 16q14 14 30 22.5t37 8.5q19 0 32.5 -6t27.5 -14q13 -8 24 -12.5t26 -4.5q20 0 34 8.5t28 22.5q4 4 7.5 3t3.5 -6v-87q0 -6 -1 -9t-6 -8q-14 -14 -30 -22.5
t-37 -8.5z" />
      <glyph d="M556 286q-10 0 -10 10v182h-3l-30 -115q-3 -10 -12 -10h-36q-9 0 -12 10l-31 115h-3v-182q0 -10 -10 -10h-70q-10 0 -10 10v374q0 10 10 10h79q9 0 12 -10l53 -187h3l51 187q3 10 12 10h77q10 0 10 -10v-374q0 -10 -10 -10h-70zM124 286q-10 0 -10 10v290q0 6 -6 6h-63
q-10 0 -10 10v68q0 10 10 10h237q10 0 10 -10v-68q0 -10 -10 -10h-62q-6 0 -6 -6v-290q0 -10 -10 -10h-80z" />
      <glyph d="M151 542q-10 0 -17 10l-94 137q-3 4 -2 7t6 3h81q10 0 19 -10l47 -56h2l47 56q9 10 19 10h80q5 0 6 -3t-2 -7l-93 -137q-7 -10 -17 -10h-82zM190 -10q-81 0 -125 35t-49 97q-2 9 8 11l113 19q10 2 12 -8q6 -42 40 -42q17 0 26 9.5t9 25.5t-8.5 24.5t-29.5 15.5l-39 13
q-65 22 -94 58.5t-29 94.5q0 70 43.5 112t124.5 42q75 0 116.5 -34.5t46.5 -86.5q1 -11 -6 -12l-107 -18q-8 -2 -10 6q-3 15 -11 24t-25 9q-16 0 -23.5 -8.5t-7.5 -21.5q0 -11 8 -19.5t30 -16.5l39 -13q70 -23 96.5 -59.5t26.5 -95.5q0 -76 -45.5 -118.5t-129.5 -42.5z" />
      <glyph d="M60 56q-3 -3 -6.5 -2t-3.5 6v125q0 9 10 19l54 56q4 4 0 8l-54 56q-10 10 -10 19v125q0 5 3.5 6t6.5 -2l194 -201q7 -7 0 -14z" />
      <glyph d="M423 -10q-32 0 -58.5 8.5t-46.5 26.5h-2q-45 -35 -107 -35q-66 0 -110 28.5t-62 85.5q-3 11 -5.5 22.5t-4 27t-2.5 37t-1 52.5t1 52.5t2.5 37.5t4 27.5t5.5 22.5q18 57 61.5 85.5t109.5 28.5q32 0 60 -9t48 -26h2q20 17 48.5 26t58.5 9q67 0 108 -29t58 -82
q3 -11 5.5 -22.5t4 -30.5t2.5 -49t1 -76q0 -10 -10 -10h-195q-6 0 -6 -6q0 -31 1 -40.5t3 -15.5q6 -21 30 -21q28 0 37 31q3 9 12 8l115 -23q9 -1 7 -12q-12 -63 -59 -96t-116 -33zM456 293q6 0 6 6q0 32 -1 43.5t-3 17.5q-6 21 -31 21q-24 0 -30 -21q-2 -6 -3 -17.5
t-1 -43.5q0 -6 6 -6h57zM209 118q24 0 30 22q1 3 2 7.5t1.5 15t0.5 29.5v51v51.5t-0.5 30t-1.5 15t-2 7.5q-6 22 -30 22t-30 -22q-1 -3 -2 -7.5t-1.5 -15t-0.5 -30v-51.5v-51t0.5 -29.5t1.5 -15t2 -7.5q6 -22 30 -22z" />
      <glyph d="M138 542q-10 0 -17 10l-94 137q-3 4 -2 7t6 3h81q10 0 19 -10l47 -56h2l47 56q9 10 19 10h80q5 0 6 -3t-2 -7l-93 -137q-7 -10 -17 -10h-82zM30 0q-10 0 -10 10v102q0 5 3 11l145 237v2h-127q-10 0 -10 10v105q0 10 10 10h280q10 0 10 -10v-99q0 -7 -3 -11l-145 -239v-2
h138q10 0 10 -10v-106q0 -10 -10 -10h-291z" />
      <glyph d="M151 0q-10 0 -10 10v249l-134 411q-3 10 8 10h137q10 0 12 -10l57 -234h3l55 234q2 10 12 10h135q11 0 8 -10l-134 -411v-249q0 -10 -10 -10h-139zM258 750q-10 0 -10 10v110q0 10 10 10h91q10 0 10 -10v-110q0 -10 -10 -10h-91zM95 750q-10 0 -10 10v110q0 10 10 10h91
q10 0 10 -10v-110q0 -10 -10 -10h-91z" />
      <glyph />
      <glyph d="M167.006 279.013q9.99902 0 9.99902 -9.99902l27.998 -451.973q0 -10 -9.99902 -10h-134.992q-9.99902 0 -9.99902 10l26.998 451.973q0 9.99902 9.99902 9.99902h79.9961zM197.004 342.009q0 -9.99902 -10 -9.99902h-119.992q-10 0 -10 9.99902v134.992
q0 9.99902 10 9.99902h119.992q10 0 10 -9.99902v-134.992z" />
      <glyph d="M399 130q-6 -58 -40 -93.5t-94 -43.5v-80q0 -10 -10 -10h-65q-10 0 -10 10v81q-97 17 -125 105q-4 11 -6.5 23t-4 28.5t-2 38.5t-0.5 54t0.5 54.5t2 39t4 28.5t6.5 23q28 88 125 105v80q0 10 10 10h65q10 0 10 -10v-79q60 -9 94 -44t40 -93q2 -11 -7 -12l-117 -20
q-12 -2 -12 8q-4 36 -35 36q-14 0 -20.5 -5t-10.5 -15q-1 -3 -2 -7.5t-1.5 -15.5t-0.5 -30.5v-52.5v-52t0.5 -30t1.5 -15.5t2 -7.5q4 -10 10.5 -15t20.5 -5q31 0 35 36q0 9 12 8l117 -20q9 -1 7 -12z" />
      <glyph d="M41 0q-10 0 -10 10v105q0 8 6 14q14 16 19 34t5 56v49q0 6 -6 6h-27q-10 0 -10 10v84q0 10 10 10h27q6 0 6 6v131q0 86 46.5 130.5t131.5 44.5q89 0 132 -45.5t45 -114.5q1 -11 -9 -12l-125 -19q-9 -1 -11 9q-1 30 -7.5 42t-22.5 12q-29 0 -29 -44v-134q0 -6 6 -6h102
q10 0 10 -10v-84q0 -10 -10 -10h-102q-6 0 -6 -6v-51q0 -29 -5.5 -50t-19.5 -36v-3h215q10 0 10 -10v-108q0 -10 -10 -10h-361z" />
      <glyph d="M346 134q-7 -7 -14 0l-49 48q-14 -7 -31 -10t-34 -3q-37 0 -66 13l-48 -48q-7 -7 -14 0l-60 60q-7 7 0 14l48 47q-15 30 -15 68q0 35 14 66l-48 48q-7 7 0 14l60 60q7 7 14 0l48 -49q30 15 67 15q38 0 68 -15l48 49q7 7 14 0l60 -60q7 -7 0 -14l-49 -49q14 -30 14 -65
q0 -19 -4 -36t-11 -32l48 -47q7 -7 0 -14zM218 273q22 0 35.5 14t13.5 36t-13.5 36t-35.5 14q-21 0 -34.5 -14t-13.5 -36t13.5 -36t34.5 -14z" />
      <glyph d="M153 0q-10 0 -10 10v83q0 6 -6 6h-83q-10 0 -10 10v69q0 10 10 10h83q6 0 6 6v27q0 6 -6 6h-83q-10 0 -10 10v68q0 10 10 10h72v3l-112 352q-3 10 8 10h131q10 0 12 -10l54 -234h3l52 234q2 10 12 10h129q11 0 8 -10l-112 -352v-3h72q10 0 10 -10v-68q0 -10 -10 -10h-83
q-6 0 -6 -6v-27q0 -6 6 -6h83q10 0 10 -10v-69q0 -10 -10 -10h-83q-6 0 -6 -6v-83q0 -10 -10 -10h-131z" />
      <glyph d="M79 388q-10 0 -10 10v332q0 10 10 10h106q10 0 10 -10v-332q0 -10 -10 -10h-106zM79 -84q-10 0 -10 10v336q0 10 10 10h106q10 0 10 -10v-336q0 -10 -10 -10h-106z" />
      <glyph d="M234 -190q-134 0 -166 97q-5 13 -7 28.5t-2 41.5q0 8 9 10l121 11q10 0 10 -10q0 -23 0.5 -32t2.5 -14q6 -19 29 -19q22 0 28 19q2 5 2.5 12t0.5 19q0 24 -4 37q-6 19 -25 31.5t-56 25.5q-49 17 -76.5 41t-40.5 59q-5 17 -8 37t-3 48q0 50 10 76q14 46 61 67v1
q-38 20 -54 66q-5 14 -7 30t-2 38q0 20 2 34.5t6 27.5q16 48 59 73t107 25q133 0 165 -97q5 -13 7 -27.5t2 -38.5q0 -9 -9 -9l-120 -11q-10 0 -10 10q0 21 -0.5 28.5t-2.5 12.5q-6 19 -27 19q-22 0 -28 -19q-2 -5 -2.5 -11t-0.5 -17q0 -24 4 -37q6 -19 24.5 -30.5
t57.5 -25.5q48 -17 76 -41t40 -59q5 -17 8 -37t3 -48q0 -49 -9 -76q-8 -24 -23.5 -40.5t-40.5 -27.5v-1q20 -10 34.5 -25.5t22.5 -40.5q5 -14 6.5 -30t1.5 -37q0 -23 -2 -38t-6 -28q-16 -48 -59 -73t-109 -25zM234 174q24 0 32 23q2 7 3 18t1 37t-1 37t-3 18q-8 23 -32 23
q-25 0 -33 -23q-2 -7 -3 -18t-1 -37t1 -37t3 -18q8 -23 33 -23z" />
      <glyph d="M258 551q-10 0 -10 10v110q0 10 10 10h91q10 0 10 -10v-110q0 -10 -10 -10h-91zM95 551q-10 0 -10 10v110q0 10 10 10h91q10 0 10 -10v-110q0 -10 -10 -10h-91z" />
      <glyph d="M351 -10q-111 0 -189 54t-110 151q-8 26 -13 61t-5 84t5 84t13 61q32 97 110 151t189 54q112 0 190 -54t110 -151q8 -26 13 -61t5 -84t-5 -84t-13 -61q-32 -97 -110 -151t-190 -54zM351 73q79 0 133.5 37.5t77.5 108.5q7 21 11 48.5t4 72.5t-4 72.5t-11 48.5
q-23 71 -77.5 108.5t-133.5 37.5t-133 -37.5t-77 -108.5q-7 -21 -11 -48.5t-4 -72.5t4 -72.5t11 -48.5q23 -71 77 -108.5t133 -37.5zM355 143q-50 0 -84.5 21t-49.5 66q-5 13 -7 36t-2 74q0 25 0.5 43t1.5 30.5t3 21t4 15.5q15 45 49.5 66t84.5 21q59 0 94.5 -28.5
t40.5 -73.5q2 -10 -7 -12l-88 -15q-10 -2 -11 7q-2 14 -9 19t-18 5q-18 0 -24 -16q-1 -3 -1.5 -6t-1 -11.5t-0.5 -23.5v-42v-42t0.5 -23.5t1 -11.5t1.5 -6q6 -16 24 -16q11 0 18 5t9 19q1 9 11 7l88 -15q9 -2 7 -12q-5 -45 -40.5 -73.5t-94.5 -28.5z" />
      <glyph d="M185 392q-10 0 -10 10v15h-2q-17 -28 -60 -28q-29 0 -52.5 19.5t-23.5 66.5q0 27 9 45.5t24 29.5t33.5 15.5t37.5 4.5h28q6 0 6 6v5q0 15 -9 22t-31 7q-13 0 -26 -4t-24 -10t-16 4l-20 52q-3 8 5 13q17 9 42.5 15.5t53.5 6.5q60 0 88 -25.5t28 -79.5v-180q0 -10 -10 -10
h-71zM148 457q11 0 19 6.5t8 20.5v22q0 6 -6 6h-16q-29 0 -29 -29q0 -26 24 -26z" />
      <glyph d="M239 257q-7 7 0 14l193 201q3 3 6.5 2t3.5 -6v-125q0 -9 -10 -19l-53 -56q-4 -4 0 -8l53 -56q10 -10 10 -19v-125q0 -5 -3.5 -6t-6.5 2zM28 257q-7 7 0 14l194 201q3 3 6.5 2t3.5 -6v-125q0 -9 -10 -19l-53 -56q-4 -4 0 -8l53 -56q10 -10 10 -19v-125q0 -5 -3.5 -6
t-6.5 2z" />
      <glyph d="M295 114q-10 0 -10 10v86q0 6 -6 6h-240q-10 0 -10 10v100q0 10 10 10h359q10 0 10 -10v-202q0 -10 -10 -10h-103z" />
      <glyph d="M45 197q-10 0 -10 10v116q0 10 10 10h268q10 0 10 -10v-116q0 -10 -10 -10h-268z" />
      <glyph d="M207 302q-60 0 -103.5 29.5t-60.5 83.5q-5 14 -7.5 32t-2.5 46q0 27 2.5 45t7.5 32q17 54 60.5 83.5t103.5 29.5q61 0 104.5 -29.5t60.5 -83.5q5 -14 7.5 -32t2.5 -45q0 -28 -2.5 -46t-7.5 -32q-17 -54 -60.5 -83.5t-104.5 -29.5zM207 348q45 0 75.5 21t42.5 60
q4 11 6 26t2 38t-2 37.5t-6 25.5q-12 39 -42.5 60t-75.5 21t-75 -21t-42 -60q-4 -11 -6.5 -25.5t-2.5 -37.5t2.5 -38t6.5 -26q12 -39 42 -60t75 -21zM151 388q-7 0 -7 7v198q0 7 7 7h62q30 0 48 -15.5t18 -51.5q0 -20 -6.5 -32.5t-16.5 -20.5l27 -85q3 -7 -5 -7h-42
q-6 0 -9 7l-20 71h-8q-2 0 -2 -3v-68q0 -7 -7 -7h-39zM205 510q11 0 15.5 4t4.5 18t-4.5 19t-15.5 5h-4q-4 0 -4 -5v-37q0 -4 4 -4h4z" />
      <glyph d="M100 563q-10 0 -10 10v89q0 10 10 10h244q10 0 10 -10v-89q0 -10 -10 -10h-244z" />
      <glyph d="M171 416q-29 0 -54 10.5t-43 28.5t-28.5 42.5t-10.5 53.5t10.5 54t28.5 43t43 28t54 10t54 -10t43 -28t28.5 -43t10.5 -54t-10.5 -53.5t-28.5 -42.5t-43 -28.5t-54 -10.5zM171 496q23 0 38 15.5t15 39.5t-15 39.5t-38 15.5t-38 -15.5t-15 -39.5t15 -39.5t38 -15.5z" />
      <glyph d="M167 166q-10 0 -10 10v116q0 6 -6 6h-112q-10 0 -10 10v99q0 10 10 10h112q6 0 6 6v116q0 10 10 10h103q10 0 10 -10v-116q0 -6 6 -6h112q10 0 10 -10v-99q0 -10 -10 -10h-112q-6 0 -6 -6v-116q0 -10 -10 -10h-103zM39 0q-10 0 -10 10v99q0 10 10 10h359q10 0 10 -10v-99
q0 -10 -10 -10h-359z" />
      <glyph d="M46 430q-10 0 -10 10v71q0 10 6 16l114 141q14 16 17.5 25.5t3.5 24.5q0 18 -3 24q-5 11 -19 11q-17 0 -20 -12q-2 -5 -2 -10v-19q0 -12 -12 -10l-84 9q-10 1 -10 12q0 18 1.5 28.5t4.5 19.5q11 34 43 53t82 19q49 0 81.5 -18.5t43.5 -53.5q3 -9 4.5 -20t1.5 -32
q0 -29 -8.5 -50.5t-28.5 -47.5l-70 -94v-2h92q10 0 10 -10v-75q0 -10 -10 -10h-228z" />
      <glyph d="M157 423q-50 0 -82 19t-43 53q-6 16 -6 34q0 11 10 12l85 8q12 2 12 -10q0 -9 2 -15q4 -11 20 -11q15 0 19 13q1 3 1.5 8t0.5 17q0 11 -0.5 15.5t-1.5 8.5q-4 14 -25 14h-7q-10 0 -10 10v77q0 10 10 10h11q16 0 21 12q2 4 2 21q0 9 -0.5 13.5t-1.5 7.5q-4 13 -19 13
q-16 0 -20 -11q-2 -6 -2 -15q0 -12 -12 -10l-85 8q-10 1 -10 12q0 17 6 34q11 34 43 53t82 19t82.5 -19t43.5 -53q2 -8 3.5 -18.5t1.5 -25.5q0 -14 -1 -23t-3 -17q-10 -29 -41 -44v-2q30 -15 40 -44q3 -9 4 -20t1 -30q0 -21 -1.5 -32.5t-3.5 -19.5q-11 -34 -43.5 -53
t-82.5 -19z" />
      <glyph d="M126 546q-11 0 -6 10l75 136q6 10 16 10h121q5 0 6.5 -3t-1.5 -7l-97 -136q-8 -10 -18 -10h-96z" />
      <glyph d="M260 0q-10 0 -10 10v37h-1q-8 -21 -22 -33t-33 -17q-2 0 -4.5 0.5t-3.5 0.5v-168q0 -10 -10 -10h-131q-10 0 -10 10v647q0 10 10 10h131q10 0 10 -10v-311q0 -24 7.5 -34.5t24.5 -10.5q16 0 24 10.5t8 34.5v311q0 10 10 10h131q10 0 10 -10v-467q0 -10 -10 -10h-131z" />
      <glyph d="M260 0q-10 0 -10 10v37h-1q-8 -21 -22 -33t-33 -17q-2 0 -4.5 0.5t-3.5 0.5v-168q0 -10 -10 -10h-131q-10 0 -10 10v647q0 10 10 10h131q10 0 10 -10v-311q0 -24 7.5 -34.5t24.5 -10.5q16 0 24 10.5t8 34.5v311q0 10 10 10h131q10 0 10 -10v-467q0 -10 -10 -10h-131z" />
      <glyph d="M397 -180q-10 0 -10 10v720q0 6 -6 6h-38q-6 0 -6 -6v-720q0 -10 -10 -10h-100q-10 0 -10 10v403q-39 3 -71 21.5t-55 48.5t-36 69.5t-13 84.5q0 46 14.5 86.5t42 71t67.5 48t90 17.5h240q10 0 10 -10v-840q0 -10 -10 -10h-99z" />
      <glyph d="M50 187q-10 0 -10 10v135q0 10 10 10h121q10 0 10 -10v-135q0 -10 -10 -10h-121z" />
      <glyph d="M200 0q4 10 16 10h91q10 0 7 -10l-56 -155q-4 -10 -15 -10h-104q-10 0 -7 10z" />
      <glyph d="M134 430q-10 0 -10 10v276h-2l-56 -33q-4 -2 -7 -1t-3 6v92q0 9 7 13l58 37q9 6 16 6h89q10 0 10 -10v-386q0 -10 -10 -10h-92z" />
      <glyph d="M158 385q-88 0 -113 74q-4 13 -6 29t-2 48t1.5 48t6.5 30q12 37 41 55t72 18t72 -18t41 -55q5 -13 6.5 -29.5t1.5 -48.5t-1.5 -48t-6.5 -29q-12 -38 -41 -56t-72 -18zM185 537q0 32 -0.5 41.5t-2.5 13.5q-6 16 -24 16t-24 -16q-2 -4 -2.5 -13.5t-0.5 -41.5t0.5 -42
t2.5 -14q6 -16 24 -16t24 16q2 4 2.5 14t0.5 42z" />
      <glyph d="M270 56q-3 -3 -6.5 -2t-3.5 6v125q0 9 10 19l54 56q4 4 0 8l-54 56q-10 10 -10 19v125q0 5 3.5 6t6.5 -2l194 -201q7 -7 0 -14zM60 56q-3 -3 -6.5 -2t-3.5 6v125q0 9 10 19l54 56q4 4 0 8l-54 56q-10 10 -10 19v125q0 5 3.5 6t6.5 -2l194 -201q7 -7 0 -14z" />
      <glyph d="M147 274q-10 0 -10 10v276h-2l-56 -33q-4 -2 -7 -1t-3 6v92q0 9 7 13l58 37q9 6 16 6h89q10 0 10 -10v-386q0 -10 -10 -10h-92zM609 1q-10 0 -10 10v41q0 6 -6 6h-137q-10 0 -10 10v79q0 7 3 16l81 234q3 10 13 10h92q10 0 7 -10l-83 -242v-3h34q6 0 6 6v60q0 10 10 10
h82q10 0 10 -10v-60q0 -6 5 -6h9q10 0 10 -10v-74q0 -10 -10 -10h-8q-6 0 -6 -6v-41q0 -10 -10 -10h-82zM209 -10q-10 0 -7 10l254 680q3 10 13 10h82q10 0 7 -10l-254 -680q-3 -10 -14 -10h-81z" />
      <glyph d="M147 274q-10 0 -10 10v276h-2l-56 -33q-4 -2 -7 -1t-3 6v92q0 9 7 13l58 37q9 6 16 6h89q10 0 10 -10v-386q0 -10 -10 -10h-92zM503 1q-10 0 -10 10v71q0 10 6 16l114 141q14 16 17.5 25.5t3.5 24.5q0 18 -3 24q-5 11 -19 11q-17 0 -20 -12q-2 -5 -2 -10v-19
q0 -12 -12 -10l-84 9q-10 1 -10 12q0 18 1.5 28.5t4.5 19.5q11 34 43 53t82 19q49 0 81.5 -18.5t43.5 -53.5q3 -9 4.5 -20t1.5 -32q0 -29 -8.5 -50.5t-28.5 -47.5l-70 -94v-2h92q10 0 10 -10v-75q0 -10 -10 -10h-228zM209 -10q-10 0 -7 10l254 680q3 10 13 10h82q10 0 7 -10
l-254 -680q-3 -10 -14 -10h-81z" />
      <glyph d="M665 1q-10 0 -10 10v41q0 6 -6 6h-137q-10 0 -10 10v79q0 7 3 16l81 234q3 10 13 10h92q10 0 7 -10l-83 -242v-3h34q6 0 6 6v60q0 10 10 10h82q10 0 10 -10v-60q0 -6 5 -6h9q10 0 10 -10v-74q0 -10 -10 -10h-8q-6 0 -6 -6v-41q0 -10 -10 -10h-82zM264 -10q-10 0 -7 10
l254 680q3 10 13 10h82q10 0 7 -10l-254 -680q-3 -10 -14 -10h-81zM198 267q-50 0 -82 19t-43 53q-6 16 -6 34q0 11 10 12l85 8q12 2 12 -10q0 -9 2 -15q4 -11 20 -11q15 0 19 13q1 3 1.5 8t0.5 17q0 11 -0.5 15.5t-1.5 8.5q-4 14 -25 14h-7q-10 0 -10 10v77q0 10 10 10h11
q16 0 21 12q2 4 2 21q0 9 -0.5 13.5t-1.5 7.5q-4 13 -19 13q-16 0 -20 -11q-2 -6 -2 -15q0 -12 -12 -10l-85 8q-10 1 -10 12q0 17 6 34q11 34 43 53t82 19t82.5 -19t43.5 -53q2 -8 3.5 -18.5t1.5 -25.5q0 -14 -1 -23t-3 -17q-10 -29 -41 -44v-2q30 -15 40 -44q3 -9 4 -20
t1 -30q0 -21 -1.5 -32.5t-3.5 -19.5q-11 -34 -43.5 -53t-82.5 -19z" />
      <glyph d="M280.008 279.013q10 0 10 -9.99902v-43.998q0 -23.998 -6.5 -42.4971q-6.49902 -18.499 -20.498 -40.4971l-49.9971 -78.9961q-8 -12.999 -13.499 -22.998q-5.5 -9.99902 -8.5 -19.999q-3 -9.99902 -4.5 -20.999q-1.5 -10.999 -1.5 -24.998q0 -16.999 3 -27.998
q8 -20.999 29.998 -20.999q23.999 0 30.998 20.999q2 5 2.5 14.499t0.5 38.4971q0 12 12 10l123.992 -12.999q9.99902 -1 9.99902 -12q0 -27.998 -2 -44.9971t-6.99902 -30.998q-16.999 -52.9961 -60.9961 -81.9951q-43.998 -28.998 -111.994 -28.998
q-69.9951 0 -112.992 29.998q-42.998 29.998 -59.9971 80.9951q-8.99902 28.998 -8.99902 65.9961q0 31.998 8.99902 59.9961q9 27.999 29.998 61.9961l49.9971 78.9961q11 16.998 15.999 29.498q5 12.499 5 28.498v35.998q0 9.99902 9.99902 9.99902h125.992z
M285.008 342.009q0 -9.99902 -9.99902 -9.99902h-120.993q-9.99902 0 -9.99902 9.99902v134.992q0 9.99902 9.99902 9.99902h120.993q9.99902 0 9.99902 -9.99902v-134.992z" />
      <glyph d="M156 670q3 10 12 10h155q10 0 12 -10l146 -660q3 -10 -8 -10h-138q-10 0 -12 10l-18 107h-121l-19 -107q-2 -10 -11 -10h-139q-10 0 -8 10zM284 236l-37 221h-2l-40 -221h79zM202 747q-6 0 -10 2.5t-9 7.5l-110 122q-3 4 -1.5 7t6.5 3h120q6 0 9 -2.5t7 -7.5l89 -122
q3 -4 1 -7t-7 -3h-95z" />
      <glyph d="M156 670q3 10 12 10h155q10 0 12 -10l146 -660q3 -10 -8 -10h-138q-10 0 -12 10l-18 107h-121l-19 -107q-2 -10 -11 -10h-139q-10 0 -8 10zM284 236l-37 221h-2l-40 -221h79zM196 747q-5 0 -7 3t1 7l88 122q4 5 7 7.5t9 2.5h121q5 0 6.5 -3t-1.5 -7l-110 -122
q-5 -5 -9 -7.5t-10 -2.5h-95z" />
      <glyph d="M156 670q3 10 12 10h155q10 0 12 -10l146 -660q3 -10 -8 -10h-138q-10 0 -12 10l-18 107h-121l-19 -107q-2 -10 -11 -10h-139q-10 0 -8 10zM284 236l-37 221h-2l-40 -221h79zM311 740q-10 0 -19 10l-47 56h-2l-47 -56q-9 -10 -19 -10h-81q-5 0 -6 3t2 7l94 137
q7 10 17 10h82q10 0 17 -10l93 -137q3 -4 2 -7t-6 -3h-80z" />
      <glyph d="M156 670q3 10 12 10h155q10 0 12 -10l146 -660q3 -10 -8 -10h-138q-10 0 -12 10l-18 107h-121l-19 -107q-2 -10 -11 -10h-139q-10 0 -8 10zM284 236l-37 221h-2l-40 -221h79zM298 744q-19 0 -32.5 5.5t-27.5 13.5q-13 8 -24 13t-26 5q-20 0 -34 -8.5t-28 -22.5
q-4 -4 -7.5 -3t-3.5 6v87q0 5 1 8.5t6 8.5q14 14 30 22t37 8q19 0 32.5 -5.5t27.5 -13.5q13 -8 24 -13t26 -5q20 0 34 8.5t28 22.5q4 4 7.5 3t3.5 -6v-87q0 -5 -1 -8.5t-6 -8.5q-14 -14 -30 -22t-37 -8z" />
      <glyph d="M156 670q3 10 12 10h155q10 0 12 -10l146 -660q3 -10 -8 -10h-138q-10 0 -12 10l-18 107h-121l-19 -107q-2 -10 -11 -10h-139q-10 0 -8 10zM284 236l-37 221h-2l-40 -221h79zM280 750q-10 0 -10 10v110q0 10 10 10h91q10 0 10 -10v-110q0 -10 -10 -10h-91zM117 750
q-10 0 -10 10v110q0 10 10 10h91q10 0 10 -10v-110q0 -10 -10 -10h-91z" />
      <glyph d="M156 670q3 10 12 10h155q10 0 12 -10l146 -660q3 -10 -8 -10h-138q-10 0 -12 10l-18 107h-121l-19 -107q-2 -10 -11 -10h-139q-10 0 -8 10zM284 236l-37 221h-2l-40 -221h79zM244 709q-45 0 -74 28.5t-29 72.5q0 45 29 73.5t74 28.5t74 -28.5t29 -73.5q0 -44 -29 -72.5
t-74 -28.5zM244 767q17 0 29 12t12 31q0 20 -12 32t-29 12q-18 0 -29.5 -12t-11.5 -32q0 -19 11.5 -31t29.5 -12z" />
      <glyph d="M341 0q-10 0 -10 10v101q0 6 -6 6h-127l-33 -107q-3 -10 -13 -10h-138q-10 0 -7 10l218 660q3 10 12 10h422q10 0 10 -10v-122q0 -10 -10 -10h-163q-6 0 -6 -6v-112q0 -6 6 -6h140q10 0 10 -10v-122q0 -10 -10 -10h-140q-6 0 -6 -6v-118q0 -6 6 -6h163q10 0 10 -10v-122
q0 -10 -10 -10h-318zM234 236h91q6 0 6 6v296h-3z" />
      <glyph d="M169 -4q-92 21 -124 117q-4 12 -6.5 26t-4.5 38.5t-3 63t-1 99.5t1 99.5t3 63t4.5 38.5t6.5 26q40 123 185 123q94 0 142.5 -48.5t53.5 -133.5q0 -11 -8 -12l-134 -22q-11 -2 -11 9q-1 35 -11 50t-30 15q-26 0 -34 -24q-2 -5 -2.5 -12t-1.5 -25t-1 -52.5v-94.5v-94.5
t1 -52.5t1.5 -25t2.5 -12q8 -24 34 -24q20 0 30 15t11 50q0 11 11 9l134 -22q8 -1 8 -12q-4 -72 -39.5 -118t-103.5 -59l-54 -150q-4 -10 -15 -10h-104q-10 0 -7 10z" />
      <glyph d="M166 747q-6 0 -10 2.5t-9 7.5l-110 122q-3 4 -1.5 7t6.5 3h120q6 0 9 -2.5t7 -7.5l89 -122q3 -4 1 -7t-7 -3h-95zM37 670q0 10 10 10h318q10 0 10 -10v-122q0 -10 -10 -10h-163q-6 0 -6 -6v-112q0 -6 6 -6h140q10 0 10 -10v-122q0 -10 -10 -10h-140q-6 0 -6 -6v-118
q0 -6 6 -6h163q10 0 10 -10v-122q0 -10 -10 -10h-318q-10 0 -10 10v660z" />
      <glyph d="M145 747q-5 0 -7 3t1 7l88 122q4 5 7 7.5t9 2.5h121q5 0 6.5 -3t-1.5 -7l-110 -122q-5 -5 -9 -7.5t-10 -2.5h-95zM37 670q0 10 10 10h318q10 0 10 -10v-122q0 -10 -10 -10h-163q-6 0 -6 -6v-112q0 -6 6 -6h140q10 0 10 -10v-122q0 -10 -10 -10h-140q-6 0 -6 -6v-118
q0 -6 6 -6h163q10 0 10 -10v-122q0 -10 -10 -10h-318q-10 0 -10 10v660z" />
      <glyph d="M37 670q0 10 10 10h318q10 0 10 -10v-122q0 -10 -10 -10h-163q-6 0 -6 -6v-112q0 -6 6 -6h140q10 0 10 -10v-122q0 -10 -10 -10h-140q-6 0 -6 -6v-118q0 -6 6 -6h163q10 0 10 -10v-122q0 -10 -10 -10h-318q-10 0 -10 10v660zM272 740q-10 0 -19 10l-47 56h-2l-47 -56
q-9 -10 -19 -10h-81q-5 0 -6 3t2 7l94 137q7 10 17 10h82q10 0 17 -10l93 -137q3 -4 2 -7t-6 -3h-80z" />
      <glyph d="M240 750q-10 0 -10 10v110q0 10 10 10h91q10 0 10 -10v-110q0 -10 -10 -10h-91zM77 750q-10 0 -10 10v110q0 10 10 10h91q10 0 10 -10v-110q0 -10 -10 -10h-91zM37 670q0 10 10 10h318q10 0 10 -10v-122q0 -10 -10 -10h-163q-6 0 -6 -6v-112q0 -6 6 -6h140q10 0 10 -10
v-122q0 -10 -10 -10h-140q-6 0 -6 -6v-118q0 -6 6 -6h163q10 0 10 -10v-122q0 -10 -10 -10h-318q-10 0 -10 10v660z" />
      <glyph d="M37 670q0 10 10 10h139q10 0 10 -10v-660q0 -10 -10 -10h-139q-10 0 -10 10v660zM72 747q-6 0 -10 2.5t-9 7.5l-110 122q-3 4 -1.5 7t6.5 3h120q6 0 9 -2.5t7 -7.5l89 -122q3 -4 1 -7t-7 -3h-95z" />
      <glyph d="M37 670q0 10 10 10h139q10 0 10 -10v-660q0 -10 -10 -10h-139q-10 0 -10 10v660zM70 747q-5 0 -7 3t1 7l88 122q4 5 7 7.5t9 2.5h121q5 0 6.5 -3t-1.5 -7l-110 -122q-5 -5 -9 -7.5t-10 -2.5h-95z" />
      <glyph d="M37 670q0 10 10 10h139q10 0 10 -10v-660q0 -10 -10 -10h-139q-10 0 -10 10v660zM185 740q-10 0 -19 10l-47 56h-2l-47 -56q-9 -10 -19 -10h-81q-5 0 -6 3t2 7l94 137q7 10 17 10h82q10 0 17 -10l93 -137q3 -4 2 -7t-6 -3h-80z" />
      <glyph d="M37 670q0 10 10 10h139q10 0 10 -10v-660q0 -10 -10 -10h-139q-10 0 -10 10v660zM154 750q-10 0 -10 10v110q0 10 10 10h91q10 0 10 -10v-110q0 -10 -10 -10h-91zM-9 750q-10 0 -10 10v110q0 10 10 10h91q10 0 10 -10v-110q0 -10 -10 -10h-91z" />
      <glyph d="M47 0q-10 0 -10 10v272q0 6 -6 6h-23q-10 0 -10 10v89q0 10 10 10h23q6 0 6 6v267q0 10 10 10h189q75 0 121.5 -28t66.5 -89q4 -14 8 -31.5t6 -43t3.5 -61.5t1.5 -87t-1.5 -87t-3.5 -61.5t-6 -43t-8 -31.5q-20 -61 -66.5 -89t-121.5 -28h-189zM222 142q40 0 51 32
q2 7 4 16.5t3 27.5t1.5 47t0.5 75t-0.5 75t-1.5 47t-3 27.5t-4 16.5q-11 32 -51 32h-21q-6 0 -6 -6v-130q0 -6 6 -6h32q10 0 10 -10v-89q0 -10 -10 -10h-32q-6 0 -6 -6v-133q0 -6 6 -6h21z" />
      <glyph d="M300 744q-19 0 -32.5 5.5t-27.5 13.5q-13 8 -24 13t-26 5q-20 0 -34 -8.5t-28 -22.5q-4 -4 -7.5 -3t-3.5 6v87q0 5 1 8.5t6 8.5q14 14 30 22t37 8q19 0 32.5 -5.5t27.5 -13.5q13 -8 24 -13t26 -5q20 0 34 8.5t28 22.5q4 4 7.5 3t3.5 -6v-87q0 -5 -1 -8.5t-6 -8.5
q-14 -14 -30 -22t-37 -8zM37 670q0 10 10 10h145q11 0 14 -10l105 -379h5v379q0 10 10 10h118q10 0 10 -10v-660q0 -10 -10 -10h-142q-11 0 -14 10l-107 379h-6v-379q0 -10 -10 -10h-118q-10 0 -10 10v660z" />
      <glyph d="M191 747q-6 0 -10 2.5t-9 7.5l-110 122q-3 4 -1.5 7t6.5 3h120q6 0 9 -2.5t7 -7.5l89 -122q3 -4 1 -7t-7 -3h-95zM235 -10q-72 0 -120.5 31t-68.5 94q-4 13 -7 27.5t-5 38.5t-3 61.5t-1 97.5t1 97.5t3 61.5t5 38.5t7 27.5q20 63 68.5 94t120.5 31t121 -31t69 -94
q4 -13 7 -27.5t5 -38.5t3 -61.5t1 -97.5t-1 -97.5t-3 -61.5t-5 -38.5t-7 -27.5q-20 -63 -69 -94t-121 -31zM235 132q30 0 38 25q1 5 2 12t2 25t1 52.5v93.5v93.5t-1 52.5t-2 25t-2 12q-8 25 -38 25q-29 0 -37 -25q-2 -5 -2.5 -12t-1.5 -25t-1 -52.5v-93.5v-93.5t1 -52.5
t1.5 -25t2.5 -12q8 -25 37 -25z" />
      <glyph d="M186 747q-5 0 -7 3t1 7l88 122q4 5 7 7.5t9 2.5h121q5 0 6.5 -3t-1.5 -7l-110 -122q-5 -5 -9 -7.5t-10 -2.5h-95zM235 -10q-72 0 -120.5 31t-68.5 94q-4 13 -7 27.5t-5 38.5t-3 61.5t-1 97.5t1 97.5t3 61.5t5 38.5t7 27.5q20 63 68.5 94t120.5 31t121 -31t69 -94
q4 -13 7 -27.5t5 -38.5t3 -61.5t1 -97.5t-1 -97.5t-3 -61.5t-5 -38.5t-7 -27.5q-20 -63 -69 -94t-121 -31zM235 132q30 0 38 25q1 5 2 12t2 25t1 52.5v93.5v93.5t-1 52.5t-2 25t-2 12q-8 25 -38 25q-29 0 -37 -25q-2 -5 -2.5 -12t-1.5 -25t-1 -52.5v-93.5v-93.5t1 -52.5
t1.5 -25t2.5 -12q8 -25 37 -25z" />
      <glyph d="M235 -10q-72 0 -120.5 31t-68.5 94q-4 13 -7 27.5t-5 38.5t-3 61.5t-1 97.5t1 97.5t3 61.5t5 38.5t7 27.5q20 63 68.5 94t120.5 31t121 -31t69 -94q4 -13 7 -27.5t5 -38.5t3 -61.5t1 -97.5t-1 -97.5t-3 -61.5t-5 -38.5t-7 -27.5q-20 -63 -69 -94t-121 -31zM235 132
q30 0 38 25q1 5 2 12t2 25t1 52.5v93.5v93.5t-1 52.5t-2 25t-2 12q-8 25 -38 25q-29 0 -37 -25q-2 -5 -2.5 -12t-1.5 -25t-1 -52.5v-93.5v-93.5t1 -52.5t1.5 -25t2.5 -12q8 -25 37 -25zM303 740q-10 0 -19 10l-47 56h-2l-47 -56q-9 -10 -19 -10h-81q-5 0 -6 3t2 7l94 137
q7 10 17 10h82q10 0 17 -10l93 -137q3 -4 2 -7t-6 -3h-80z" />
      <glyph d="M290 744q-19 0 -32.5 5.5t-27.5 13.5q-13 8 -24 13t-26 5q-20 0 -34 -8.5t-28 -22.5q-4 -4 -7.5 -3t-3.5 6v87q0 5 1 8.5t6 8.5q14 14 30 22t37 8q19 0 32.5 -5.5t27.5 -13.5q13 -8 24 -13t26 -5q20 0 34 8.5t28 22.5q4 4 7.5 3t3.5 -6v-87q0 -5 -1 -8.5t-6 -8.5
q-14 -14 -30 -22t-37 -8zM235 -10q-72 0 -120.5 31t-68.5 94q-4 13 -7 27.5t-5 38.5t-3 61.5t-1 97.5t1 97.5t3 61.5t5 38.5t7 27.5q20 63 68.5 94t120.5 31t121 -31t69 -94q4 -13 7 -27.5t5 -38.5t3 -61.5t1 -97.5t-1 -97.5t-3 -61.5t-5 -38.5t-7 -27.5q-20 -63 -69 -94
t-121 -31zM235 132q30 0 38 25q1 5 2 12t2 25t1 52.5v93.5v93.5t-1 52.5t-2 25t-2 12q-8 25 -38 25q-29 0 -37 -25q-2 -5 -2.5 -12t-1.5 -25t-1 -52.5v-93.5v-93.5t1 -52.5t1.5 -25t2.5 -12q8 -25 37 -25z" />
      <glyph d="M271 750q-10 0 -10 10v110q0 10 10 10h91q10 0 10 -10v-110q0 -10 -10 -10h-91zM108 750q-10 0 -10 10v110q0 10 10 10h91q10 0 10 -10v-110q0 -10 -10 -10h-91zM235 -10q-72 0 -120.5 31t-68.5 94q-4 13 -7 27.5t-5 38.5t-3 61.5t-1 97.5t1 97.5t3 61.5t5 38.5t7 27.5
q20 63 68.5 94t120.5 31t121 -31t69 -94q4 -13 7 -27.5t5 -38.5t3 -61.5t1 -97.5t-1 -97.5t-3 -61.5t-5 -38.5t-7 -27.5q-20 -63 -69 -94t-121 -31zM235 132q30 0 38 25q1 5 2 12t2 25t1 52.5v93.5v93.5t-1 52.5t-2 25t-2 12q-8 25 -38 25q-29 0 -37 -25q-2 -5 -2.5 -12
t-1.5 -25t-1 -52.5v-93.5v-93.5t1 -52.5t1.5 -25t2.5 -12q8 -25 37 -25z" />
      <glyph d="M323 106q-7 -9 -14 0l-86 86q-4 3 -8 0l-86 -86q-8 -8 -15 0l-66 65q-6 7 0 15l86 86q4 4 0 8l-86 86q-6 7 0 15l66 65q7 7 15 0l86 -86q4 -3 8 0l86 86q7 9 14 0l66 -65q7 -8 0 -15l-86 -86q-3 -4 0 -8l86 -86q7 -8 0 -15z" />
      <glyph d="M235 -10q-63 0 -110 25l-18 -35q-5 -10 -16 -10h-78q-5 0 -6.5 3t0.5 7l53 101q-8 16 -14 34q-5 13 -8 27.5t-4.5 38.5t-2.5 61.5t-1 97.5t1 97.5t2.5 61.5t4.5 38.5t8 27.5q21 63 69 94t120 31q63 0 110 -25l19 35q5 10 16 10h78q5 0 6.5 -3t-0.5 -7l-54 -101
q9 -17 15 -34q4 -13 7 -27.5t5 -38.5t3 -61.5t1 -97.5t-1 -97.5t-3 -61.5t-5 -38.5t-7 -27.5q-20 -63 -69 -94t-121 -31zM235 132q30 0 38 25q1 5 2 11.5t2 24.5t1 52.5v94.5v94.5t-1 52.5t-2 24.5t-2 11.5q-8 25 -38 25q-29 0 -37 -25q-2 -5 -2.5 -11.5t-1.5 -24.5
t-1 -52.5v-94.5v-94.5t1 -52.5t1.5 -24.5t2.5 -11.5q8 -25 37 -25z" />
      <glyph d="M193 747q-6 0 -10 2.5t-9 7.5l-110 122q-3 4 -1.5 7t6.5 3h120q6 0 9 -2.5t7 -7.5l89 -122q3 -4 1 -7t-7 -3h-95zM236 -10q-92 0 -146 52t-54 155v473q0 10 10 10h139q10 0 10 -10v-491q0 -47 41 -47t41 47v491q0 10 10 10h139q10 0 10 -10v-473q0 -103 -54 -155
t-146 -52z" />
      <glyph d="M187 747q-5 0 -7 3t1 7l88 122q4 5 7 7.5t9 2.5h121q5 0 6.5 -3t-1.5 -7l-110 -122q-5 -5 -9 -7.5t-10 -2.5h-95zM236 -10q-92 0 -146 52t-54 155v473q0 10 10 10h139q10 0 10 -10v-491q0 -47 41 -47t41 47v491q0 10 10 10h139q10 0 10 -10v-473q0 -103 -54 -155
t-146 -52z" />
      <glyph d="M236 -10q-92 0 -146 52t-54 155v473q0 10 10 10h139q10 0 10 -10v-491q0 -47 41 -47t41 47v491q0 10 10 10h139q10 0 10 -10v-473q0 -103 -54 -155t-146 -52zM303 740q-10 0 -19 10l-47 56h-2l-47 -56q-9 -10 -19 -10h-81q-5 0 -6 3t2 7l94 137q7 10 17 10h82
q10 0 17 -10l93 -137q3 -4 2 -7t-6 -3h-80z" />
      <glyph d="M272 750q-10 0 -10 10v110q0 10 10 10h91q10 0 10 -10v-110q0 -10 -10 -10h-91zM109 750q-10 0 -10 10v110q0 10 10 10h91q10 0 10 -10v-110q0 -10 -10 -10h-91zM236 -10q-92 0 -146 52t-54 155v473q0 10 10 10h139q10 0 10 -10v-491q0 -47 41 -47t41 47v491q0 10 10 10
h139q10 0 10 -10v-473q0 -103 -54 -155t-146 -52z" />
      <glyph d="M151 0q-10 0 -10 10v249l-134 411q-3 10 8 10h137q10 0 12 -10l57 -234h3l55 234q2 10 12 10h135q11 0 8 -10l-134 -411v-249q0 -10 -10 -10h-139zM167 747q-5 0 -7 3t1 7l88 122q4 5 7 7.5t9 2.5h121q5 0 6.5 -3t-1.5 -7l-110 -122q-5 -5 -9 -7.5t-10 -2.5h-95z" />
      <glyph d="M47 0q-10 0 -10 10v660q0 10 10 10h139q10 0 10 -10v-96q0 -6 6 -6h32q48 0 86.5 -12.5t65.5 -39t41.5 -68t14.5 -99.5q0 -59 -15.5 -100.5t-43.5 -67.5t-66 -38.5t-83 -12.5h-32q-6 0 -6 -6v-114q0 -10 -10 -10h-139zM225 264q30 0 44 17.5t14 67.5t-14 67.5t-44 17.5
h-23q-6 0 -6 -6v-158q0 -6 6 -6h23z" />
      <glyph d="M237 -5q-10 0 -10 10v108q0 10 10 10h6q21 0 27 17q1 3 2 7t1.5 12.5t0.5 24v41.5v41.5t-0.5 24t-1.5 12.5t-2 7q-7 18 -27 18h-6q-10 0 -10 10v108q0 10 10 10h5q17 0 23 16q2 5 2.5 13t0.5 26q0 52 -40 52q-42 0 -42 -52v-501q0 -10 -10 -10h-131q-10 0 -10 10v492
q0 92 49.5 140t143.5 48q91 0 141 -46.5t50 -124.5q0 -45 -11.5 -72.5t-39.5 -47.5v-2q35 -21 48 -61q3 -8 4.5 -17t2.5 -21.5t1.5 -30t0.5 -42.5q0 -62 -2.5 -91t-8.5 -46q-17 -52 -57.5 -72.5t-108.5 -20.5h-11z" />
      <glyph d="M240 0q-10 0 -10 10v29h-1q-11 -23 -35 -36t-56 -13q-23 0 -44 7.5t-37.5 25t-26 45.5t-9.5 69q0 46 13.5 76t36 48t51 25t58.5 7h44q6 0 6 6v22q0 26 -12 38.5t-47 12.5q-26 0 -45.5 -7t-34.5 -18q-12 -8 -15 3l-39 93q-3 10 5 15q28 18 66 28.5t86 10.5q51 0 85 -11
t55 -32.5t30 -54.5t9 -77v-312q0 -10 -10 -10h-123zM190 102q18 0 29 12.5t11 35.5v42q0 6 -6 6h-21q-26 0 -36.5 -13.5t-10.5 -36.5q0 -46 34 -46zM170 546q-11 0 -18 10l-97 136q-3 4 -1.5 7t6.5 3h121q10 0 16 -10l75 -136q5 -10 -6 -10h-96z" />
      <glyph d="M240 0q-10 0 -10 10v29h-1q-11 -23 -35 -36t-56 -13q-23 0 -44 7.5t-37.5 25t-26 45.5t-9.5 69q0 46 13.5 76t36 48t51 25t58.5 7h44q6 0 6 6v22q0 26 -12 38.5t-47 12.5q-26 0 -45.5 -7t-34.5 -18q-12 -8 -15 3l-39 93q-3 10 5 15q28 18 66 28.5t86 10.5q51 0 85 -11
t55 -32.5t30 -54.5t9 -77v-312q0 -10 -10 -10h-123zM190 102q18 0 29 12.5t11 35.5v42q0 6 -6 6h-21q-26 0 -36.5 -13.5t-10.5 -36.5q0 -46 34 -46zM144 546q-11 0 -6 10l75 136q6 10 16 10h121q5 0 6.5 -3t-1.5 -7l-97 -136q-8 -10 -18 -10h-96z" />
      <glyph d="M240 0q-10 0 -10 10v29h-1q-11 -23 -35 -36t-56 -13q-23 0 -44 7.5t-37.5 25t-26 45.5t-9.5 69q0 46 13.5 76t36 48t51 25t58.5 7h44q6 0 6 6v22q0 26 -12 38.5t-47 12.5q-26 0 -45.5 -7t-34.5 -18q-12 -8 -15 3l-39 93q-3 10 5 15q28 18 66 28.5t86 10.5q51 0 85 -11
t55 -32.5t30 -54.5t9 -77v-312q0 -10 -10 -10h-123zM190 102q18 0 29 12.5t11 35.5v42q0 6 -6 6h-21q-26 0 -36.5 -13.5t-10.5 -36.5q0 -46 34 -46zM272 545q-10 0 -19 10l-47 56h-2l-47 -56q-9 -10 -19 -10h-81q-5 0 -6 3t2 7l94 136q7 10 17 10h82q10 0 17 -10l93 -136
q3 -4 2 -7t-6 -3h-80z" />
      <glyph d="M240 0q-10 0 -10 10v29h-1q-11 -23 -35 -36t-56 -13q-23 0 -44 7.5t-37.5 25t-26 45.5t-9.5 69q0 46 13.5 76t36 48t51 25t58.5 7h44q6 0 6 6v22q0 26 -12 38.5t-47 12.5q-26 0 -45.5 -7t-34.5 -18q-12 -8 -15 3l-39 93q-3 10 5 15q28 18 66 28.5t86 10.5q51 0 85 -11
t55 -32.5t30 -54.5t9 -77v-312q0 -10 -10 -10h-123zM190 102q18 0 29 12.5t11 35.5v42q0 6 -6 6h-21q-26 0 -36.5 -13.5t-10.5 -36.5q0 -46 34 -46zM259 548q-19 0 -32.5 6t-27.5 14q-13 8 -24 13t-26 5q-20 0 -34 -8.5t-28 -22.5q-4 -4 -7.5 -3t-3.5 6v87q0 9 7 16
q14 14 30 22.5t37 8.5q19 0 32.5 -6t27.5 -14q13 -8 24 -12.5t26 -4.5q20 0 34 8.5t28 22.5q4 4 7.5 3t3.5 -6v-87q0 -6 -1 -9t-6 -8q-14 -14 -30 -22.5t-37 -8.5z" />
      <glyph d="M240 0q-10 0 -10 10v29h-1q-11 -23 -35 -36t-56 -13q-23 0 -44 7.5t-37.5 25t-26 45.5t-9.5 69q0 46 13.5 76t36 48t51 25t58.5 7h44q6 0 6 6v22q0 26 -12 38.5t-47 12.5q-26 0 -45.5 -7t-34.5 -18q-12 -8 -15 3l-39 93q-3 10 5 15q28 18 66 28.5t86 10.5q51 0 85 -11
t55 -32.5t30 -54.5t9 -77v-312q0 -10 -10 -10h-123zM190 102q18 0 29 12.5t11 35.5v42q0 6 -6 6h-21q-26 0 -36.5 -13.5t-10.5 -36.5q0 -46 34 -46zM241 551q-10 0 -10 10v110q0 10 10 10h91q10 0 10 -10v-110q0 -10 -10 -10h-91zM78 551q-10 0 -10 10v110q0 10 10 10h91
q10 0 10 -10v-110q0 -10 -10 -10h-91z" />
      <glyph d="M240 0q-10 0 -10 10v29h-1q-11 -23 -35 -36t-56 -13q-23 0 -44 7.5t-37.5 25t-26 45.5t-9.5 69q0 46 13.5 76t36 48t51 25t58.5 7h44q6 0 6 6v22q0 26 -12 38.5t-47 12.5q-26 0 -45.5 -7t-34.5 -18q-12 -8 -15 3l-39 93q-3 10 5 15q28 18 66 28.5t86 10.5q51 0 85 -11
t55 -32.5t30 -54.5t9 -77v-312q0 -10 -10 -10h-123zM190 102q18 0 29 12.5t11 35.5v42q0 6 -6 6h-21q-26 0 -36.5 -13.5t-10.5 -36.5q0 -46 34 -46zM205 528q-45 0 -74 28t-29 73t29 73t74 28t74 -28t29 -73t-29 -73t-74 -28zM205 586q17 0 29 12t12 31t-12 31t-29 12
q-18 0 -29.5 -12t-11.5 -31t11.5 -31t29.5 -12z" />
      <glyph d="M408 -10q-42 0 -76 13.5t-56 39.5h-2q-24 -29 -51.5 -41t-70.5 -12q-27 0 -51 8t-41.5 26t-28 46t-10.5 67q0 46 13.5 76t36 48t51 25t58.5 7h44q6 0 6 6v22q0 26 -12 38.5t-47 12.5q-26 0 -45.5 -7t-34.5 -18q-12 -8 -15 3l-39 93q-3 10 5 15q28 18 66 28.5t86 10.5
q74 0 114 -26h1q38 26 99 26q67 0 109 -28.5t59 -81.5q3 -11 5.5 -22.5t4 -30.5t2.5 -49t1 -77q0 -10 -10 -10h-195q-6 0 -6 -6q0 -31 0.5 -40.5t2.5 -15.5q7 -21 31 -21q27 0 37 31q3 9 12 8l115 -23q9 -1 7 -12q-12 -63 -59 -96t-116 -33zM441 293q6 0 6 6q0 32 -1.5 43.5
t-3.5 17.5q-6 21 -30 21t-30 -21q-2 -6 -3 -17.5t-1 -43.5q0 -6 6 -6h57zM190 102q18 0 29 12.5t11 35.5v42q0 6 -6 6h-21q-26 0 -36.5 -13.5t-10.5 -36.5q0 -46 34 -46z" />
      <glyph d="M146 -4q-82 20 -109 103q-4 11 -6.5 23t-4 28.5t-2 38.5t-0.5 54t0.5 54.5t2 39t4 28.5t6.5 23q18 55 60 82t105 27q74 0 121 -38.5t52 -108.5q0 -9 -8 -12l-116 -20q-12 -2 -12 9q-2 23 -10 32.5t-22 9.5q-22 0 -28 -20q-1 -3 -2 -7.5t-1.5 -15.5t-0.5 -30.5v-52.5v-52
t0.5 -30t1.5 -15.5t2 -7.5q6 -20 28 -20q14 0 22 9.5t10 32.5q0 11 12 9l116 -20q8 -3 8 -12q-5 -55 -35 -90.5t-79 -48.5l-55 -153q-4 -10 -15 -10h-104q-10 0 -7 10z" />
      <glyph d="M204 -10q-67 0 -108.5 28.5t-58.5 81.5q-3 10 -5.5 22t-4 28t-2.5 38.5t-1 54.5t1 54.5t2.5 39t4 28t5.5 22.5q17 53 58.5 81.5t108.5 28.5t108.5 -28.5t58.5 -81.5q3 -11 6 -22.5t4.5 -30.5t2.5 -49t1 -77q0 -10 -10 -10h-195q-6 0 -6 -6q0 -31 0.5 -40.5t2.5 -15.5
q7 -21 31 -21q27 0 37 31q3 9 12 8l115 -23q9 -1 7 -12q-12 -63 -59 -96t-116 -33zM236 293q6 0 6 6q0 32 -1 43.5t-3 17.5q-6 21 -30 21t-30 -21q-2 -6 -3 -17.5t-1 -43.5q0 -6 6 -6h56zM165 546q-11 0 -18 10l-97 136q-3 4 -1.5 7t6.5 3h121q10 0 16 -10l75 -136
q5 -10 -6 -10h-96z" />
      <glyph d="M143 546q-11 0 -6 10l75 136q6 10 16 10h121q5 0 6.5 -3t-1.5 -7l-97 -136q-8 -10 -18 -10h-96zM204 -10q-67 0 -108.5 28.5t-58.5 81.5q-3 10 -5.5 22t-4 28t-2.5 38.5t-1 54.5t1 54.5t2.5 39t4 28t5.5 22.5q17 53 58.5 81.5t108.5 28.5t108.5 -28.5t58.5 -81.5
q3 -11 6 -22.5t4.5 -30.5t2.5 -49t1 -77q0 -10 -10 -10h-195q-6 0 -6 -6q0 -31 0.5 -40.5t2.5 -15.5q7 -21 31 -21q27 0 37 31q3 9 12 8l115 -23q9 -1 7 -12q-12 -63 -59 -96t-116 -33zM236 293q6 0 6 6q0 32 -1 43.5t-3 17.5q-6 21 -30 21t-30 -21q-2 -6 -3 -17.5t-1 -43.5
q0 -6 6 -6h56z" />
      <glyph d="M272 545q-10 0 -19 10l-47 56h-2l-47 -56q-9 -10 -19 -10h-81q-5 0 -6 3t2 7l94 136q7 10 17 10h82q10 0 17 -10l93 -136q3 -4 2 -7t-6 -3h-80zM204 -10q-67 0 -108.5 28.5t-58.5 81.5q-3 10 -5.5 22t-4 28t-2.5 38.5t-1 54.5t1 54.5t2.5 39t4 28t5.5 22.5
q17 53 58.5 81.5t108.5 28.5t108.5 -28.5t58.5 -81.5q3 -11 6 -22.5t4.5 -30.5t2.5 -49t1 -77q0 -10 -10 -10h-195q-6 0 -6 -6q0 -31 0.5 -40.5t2.5 -15.5q7 -21 31 -21q27 0 37 31q3 9 12 8l115 -23q9 -1 7 -12q-12 -63 -59 -96t-116 -33zM236 293q6 0 6 6q0 32 -1 43.5
t-3 17.5q-6 21 -30 21t-30 -21q-2 -6 -3 -17.5t-1 -43.5q0 -6 6 -6h56z" />
      <glyph d="M241 551q-10 0 -10 10v110q0 10 10 10h91q10 0 10 -10v-110q0 -10 -10 -10h-91zM78 551q-10 0 -10 10v110q0 10 10 10h91q10 0 10 -10v-110q0 -10 -10 -10h-91zM204 -10q-67 0 -108.5 28.5t-58.5 81.5q-3 10 -5.5 22t-4 28t-2.5 38.5t-1 54.5t1 54.5t2.5 39t4 28
t5.5 22.5q17 53 58.5 81.5t108.5 28.5t108.5 -28.5t58.5 -81.5q3 -11 6 -22.5t4.5 -30.5t2.5 -49t1 -77q0 -10 -10 -10h-195q-6 0 -6 -6q0 -31 0.5 -40.5t2.5 -15.5q7 -21 31 -21q27 0 37 31q3 9 12 8l115 -23q9 -1 7 -12q-12 -63 -59 -96t-116 -33zM236 293q6 0 6 6
q0 32 -1 43.5t-3 17.5q-6 21 -30 21t-30 -21q-2 -6 -3 -17.5t-1 -43.5q0 -6 6 -6h56z" />
      <glyph d="M45 0q-10 0 -10 10v467q0 10 10 10h131q10 0 10 -10v-467q0 -10 -10 -10h-131zM76 546q-11 0 -18 10l-97 136q-3 4 -1.5 7t6.5 3h121q10 0 16 -10l75 -136q5 -10 -6 -10h-96z" />
      <glyph d="M59 546q-11 0 -6 10l75 136q6 10 16 10h121q5 0 6.5 -3t-1.5 -7l-97 -136q-8 -10 -18 -10h-96zM45 0q-10 0 -10 10v467q0 10 10 10h131q10 0 10 -10v-467q0 -10 -10 -10h-131z" />
      <glyph d="M179 545q-10 0 -19 10l-47 56h-2l-47 -56q-9 -10 -19 -10h-81q-5 0 -6 3t2 7l94 136q7 10 17 10h82q10 0 17 -10l93 -136q3 -4 2 -7t-6 -3h-80zM45 0q-10 0 -10 10v467q0 10 10 10h131q10 0 10 -10v-467q0 -10 -10 -10h-131z" />
      <glyph d="M147 551q-10 0 -10 10v110q0 10 10 10h91q10 0 10 -10v-110q0 -10 -10 -10h-91zM-16 551q-10 0 -10 10v110q0 10 10 10h91q10 0 10 -10v-110q0 -10 -10 -10h-91zM45 0q-10 0 -10 10v467q0 10 10 10h131q10 0 10 -10v-467q0 -10 -10 -10h-131z" />
      <glyph d="M293 551l29 -56q20 -38 33.5 -70t22 -63t12.5 -62.5t4 -69.5q0 -50 -3 -77t-10 -49q-38 -114 -172 -114q-66 0 -110 28.5t-62 85.5q-7 22 -10 46.5t-3 68.5q0 45 3.5 71t10.5 48q15 47 48 77t83 30q10 0 19.5 -2t13.5 -5h1l-38 72l-67 -21q-9 -3 -12 6l-20 63q-3 10 6 13
l54 17l-42 82q-5 10 6 10h128q8 0 14 -10l21 -41l66 21q9 3 12 -6l22 -63q3 -10 -7 -13zM209 118q24 0 30 22q1 3 2 7.5t1.5 12.5t0.5 22v37v38t-0.5 22.5t-1.5 13t-2 7.5q-6 21 -30 21t-30 -21q-1 -3 -2 -7.5t-1.5 -13t-0.5 -22.5v-38v-37t0.5 -22t1.5 -12.5t2 -7.5
q6 -22 30 -22z" />
      <glyph d="M261 0q-10 0 -10 10v311q0 45 -32 45q-33 0 -33 -45v-311q0 -10 -10 -10h-131q-10 0 -10 10v467q0 10 10 10h130q10 0 10 -10v-37h1q13 25 37.5 41t61.5 16q63 0 90 -36t27 -114v-337q0 -10 -10 -10h-131zM274 548q-19 0 -32.5 6t-27.5 14q-13 8 -24 13t-26 5
q-20 0 -34 -8.5t-28 -22.5q-4 -4 -7.5 -3t-3.5 6v87q0 9 7 16q14 14 30 22.5t37 8.5q19 0 32.5 -6t27.5 -14q13 -8 24 -12.5t26 -4.5q20 0 34 8.5t28 22.5q4 4 7.5 3t3.5 -6v-87q0 -6 -1 -9t-6 -8q-14 -14 -30 -22.5t-37 -8.5z" />
      <glyph d="M209 -10q-66 0 -110 28.5t-62 85.5q-3 11 -5.5 22.5t-4 27t-2.5 37t-1 52.5t1 52.5t2.5 37.5t4 27.5t5.5 22.5q18 57 62 85.5t110 28.5q134 0 172 -114q3 -11 5.5 -22.5t4 -27.5t2.5 -37.5t1 -52.5t-1 -52.5t-2.5 -37t-4 -27t-5.5 -22.5q-38 -114 -172 -114zM209 118
q24 0 30 22q1 3 2 7.5t1.5 15t0.5 29.5v51v51.5t-0.5 30t-1.5 15t-2 7.5q-6 22 -30 22t-30 -22q-1 -3 -2 -7.5t-1.5 -15t-0.5 -30v-51.5v-51t0.5 -29.5t1.5 -15t2 -7.5q6 -22 30 -22zM166 546q-11 0 -18 10l-97 136q-3 4 -1.5 7t6.5 3h121q10 0 16 -10l75 -136q5 -10 -6 -10
h-96z" />
      <glyph d="M146 546q-11 0 -6 10l75 136q6 10 16 10h121q5 0 6.5 -3t-1.5 -7l-97 -136q-8 -10 -18 -10h-96zM209 -10q-66 0 -110 28.5t-62 85.5q-3 11 -5.5 22.5t-4 27t-2.5 37t-1 52.5t1 52.5t2.5 37.5t4 27.5t5.5 22.5q18 57 62 85.5t110 28.5q134 0 172 -114q3 -11 5.5 -22.5
t4 -27.5t2.5 -37.5t1 -52.5t-1 -52.5t-2.5 -37t-4 -27t-5.5 -22.5q-38 -114 -172 -114zM209 118q24 0 30 22q1 3 2 7.5t1.5 15t0.5 29.5v51v51.5t-0.5 30t-1.5 15t-2 7.5q-6 22 -30 22t-30 -22q-1 -3 -2 -7.5t-1.5 -15t-0.5 -30v-51.5v-51t0.5 -29.5t1.5 -15t2 -7.5
q6 -22 30 -22z" />
      <glyph d="M278 545q-10 0 -19 10l-47 56h-2l-47 -56q-9 -10 -19 -10h-81q-5 0 -6 3t2 7l94 136q7 10 17 10h82q10 0 17 -10l93 -136q3 -4 2 -7t-6 -3h-80zM209 -10q-66 0 -110 28.5t-62 85.5q-3 11 -5.5 22.5t-4 27t-2.5 37t-1 52.5t1 52.5t2.5 37.5t4 27.5t5.5 22.5q18 57 62 85.5
t110 28.5q134 0 172 -114q3 -11 5.5 -22.5t4 -27.5t2.5 -37.5t1 -52.5t-1 -52.5t-2.5 -37t-4 -27t-5.5 -22.5q-38 -114 -172 -114zM209 118q24 0 30 22q1 3 2 7.5t1.5 15t0.5 29.5v51v51.5t-0.5 30t-1.5 15t-2 7.5q-6 22 -30 22t-30 -22q-1 -3 -2 -7.5t-1.5 -15t-0.5 -30
v-51.5v-51t0.5 -29.5t1.5 -15t2 -7.5q6 -22 30 -22z" />
      <glyph d="M209 -10q-66 0 -110 28.5t-62 85.5q-3 11 -5.5 22.5t-4 27t-2.5 37t-1 52.5t1 52.5t2.5 37.5t4 27.5t5.5 22.5q18 57 62 85.5t110 28.5q134 0 172 -114q3 -11 5.5 -22.5t4 -27.5t2.5 -37.5t1 -52.5t-1 -52.5t-2.5 -37t-4 -27t-5.5 -22.5q-38 -114 -172 -114zM209 118
q24 0 30 22q1 3 2 7.5t1.5 15t0.5 29.5v51v51.5t-0.5 30t-1.5 15t-2 7.5q-6 22 -30 22t-30 -22q-1 -3 -2 -7.5t-1.5 -15t-0.5 -30v-51.5v-51t0.5 -29.5t1.5 -15t2 -7.5q6 -22 30 -22zM265 548q-19 0 -32.5 6t-27.5 14q-13 8 -24 13t-26 5q-20 0 -34 -8.5t-28 -22.5
q-4 -4 -7.5 -3t-3.5 6v87q0 9 7 16q14 14 30 22.5t37 8.5q19 0 32.5 -6t27.5 -14q13 -8 24 -12.5t26 -4.5q20 0 34 8.5t28 22.5q4 4 7.5 3t3.5 -6v-87q0 -6 -1 -9t-6 -8q-14 -14 -30 -22.5t-37 -8.5z" />
      <glyph d="M247 551q-10 0 -10 10v110q0 10 10 10h91q10 0 10 -10v-110q0 -10 -10 -10h-91zM84 551q-10 0 -10 10v110q0 10 10 10h91q10 0 10 -10v-110q0 -10 -10 -10h-91zM209 -10q-66 0 -110 28.5t-62 85.5q-3 11 -5.5 22.5t-4 27t-2.5 37t-1 52.5t1 52.5t2.5 37.5t4 27.5
t5.5 22.5q18 57 62 85.5t110 28.5q134 0 172 -114q3 -11 5.5 -22.5t4 -27.5t2.5 -37.5t1 -52.5t-1 -52.5t-2.5 -37t-4 -27t-5.5 -22.5q-38 -114 -172 -114zM209 118q24 0 30 22q1 3 2 7.5t1.5 15t0.5 29.5v51v51.5t-0.5 30t-1.5 15t-2 7.5q-6 22 -30 22t-30 -22
q-1 -3 -2 -7.5t-1.5 -15t-0.5 -30v-51.5v-51t0.5 -29.5t1.5 -15t2 -7.5q6 -22 30 -22z" />
      <glyph d="M219 384q-32 0 -54 22t-22 54t22 53.5t54 21.5t53.5 -21.5t21.5 -53.5t-21.5 -54t-53.5 -22zM39 216q-10 0 -10 10v100q0 10 10 10h359q10 0 10 -10v-100q0 -10 -10 -10h-359zM219 17q-32 0 -54 21.5t-22 53.5t22 54t54 22t53.5 -22t21.5 -54t-21.5 -53.5t-53.5 -21.5z
" />
      <glyph d="M209 -10q-53 0 -94 19l-17 -29q-7 -10 -16 -10h-66q-5 0 -6 3t1 7l47 79q-14 19 -21 45q-3 11 -5.5 22.5t-4 27t-2.5 37t-1 52.5t1 52.5t2.5 37.5t4 27.5t5.5 22.5q18 57 62 85.5t110 28.5q53 0 93 -20l18 30q7 10 16 10h66q5 0 6 -3t-1 -7l-48 -80q7 -10 12 -21t10 -23
q4 -11 6.5 -22.5t4 -27.5t2 -37.5t0.5 -52.5t-1 -52.5t-2.5 -37t-4 -27t-5.5 -22.5q-38 -114 -172 -114zM209 118q24 0 31 22q1 3 2 7.5t1.5 15t0.5 29.5v51v51.5t-0.5 30t-1.5 15t-2 7.5q-7 22 -31 22t-31 -22q-1 -3 -2 -7.5t-1.5 -15t-0.5 -30v-51.5v-51t0.5 -29.5
t1.5 -15t2 -7.5q7 -22 31 -22z" />
      <glyph d="M259 0q-10 0 -10 10v37h-1q-13 -25 -37 -41t-62 -16q-61 0 -88.5 36t-27.5 114v337q0 10 10 10h131q10 0 10 -10v-312q0 -44 32 -44t32 44v312q0 10 10 10h131q10 0 10 -10v-467q0 -10 -10 -10h-130zM179 546q-11 0 -18 10l-97 136q-3 4 -1.5 7t6.5 3h121q10 0 16 -10
l75 -136q5 -10 -6 -10h-96z" />
      <glyph d="M156 546q-11 0 -6 10l75 136q6 10 16 10h121q5 0 6.5 -3t-1.5 -7l-97 -136q-8 -10 -18 -10h-96zM259 0q-10 0 -10 10v37h-1q-13 -25 -37 -41t-62 -16q-61 0 -88.5 36t-27.5 114v337q0 10 10 10h131q10 0 10 -10v-312q0 -44 32 -44t32 44v312q0 10 10 10h131q10 0 10 -10
v-467q0 -10 -10 -10h-130z" />
      <glyph d="M286 545q-10 0 -19 10l-47 56h-2l-47 -56q-9 -10 -19 -10h-81q-5 0 -6 3t2 7l94 136q7 10 17 10h82q10 0 17 -10l93 -136q3 -4 2 -7t-6 -3h-80zM259 0q-10 0 -10 10v37h-1q-13 -25 -37 -41t-62 -16q-61 0 -88.5 36t-27.5 114v337q0 10 10 10h131q10 0 10 -10v-312
q0 -44 32 -44t32 44v312q0 10 10 10h131q10 0 10 -10v-467q0 -10 -10 -10h-130z" />
      <glyph d="M255 551q-10 0 -10 10v110q0 10 10 10h91q10 0 10 -10v-110q0 -10 -10 -10h-91zM92 551q-10 0 -10 10v110q0 10 10 10h91q10 0 10 -10v-110q0 -10 -10 -10h-91zM259 0q-10 0 -10 10v37h-1q-13 -25 -37 -41t-62 -16q-61 0 -88.5 36t-27.5 114v337q0 10 10 10h131
q10 0 10 -10v-312q0 -44 32 -44t32 44v312q0 10 10 10h131q10 0 10 -10v-467q0 -10 -10 -10h-130z" />
      <glyph d="M61 -180q-10 0 -10 10v111q0 10 10 10h14q27 1 40 10.5t18 32.5l5 22l-128 461q-3 10 8 10h127q10 0 12 -10l46 -254h2l49 254q2 10 12 10h121q11 0 8 -10l-131 -491q-13 -49 -29.5 -81t-38.5 -51t-51.5 -26.5t-69.5 -7.5h-14zM142 546q-11 0 -6 10l75 136q6 10 16 10
h121q5 0 6.5 -3t-1.5 -7l-97 -136q-8 -10 -18 -10h-96z" />
      <glyph d="M45 -180q-10 0 -10 10v840q0 10 10 10h131q10 0 10 -10v-231h1q14 27 37 42.5t59 15.5q44 0 69 -18t39 -59q4 -12 6.5 -25.5t4.5 -34t3 -49t1 -68.5t-1 -68t-3 -48.5t-4.5 -34t-6.5 -25.5q-14 -41 -39 -59t-69 -18q-36 0 -59 15.5t-37 42.5h-1v-218q0 -10 -10 -10h-131z
M221 118q22 0 30 22q1 3 2 7.5t1.5 15t0.5 29.5v51v51t-0.5 29.5t-1.5 15.5t-2 8q-8 22 -30 22q-23 0 -31 -22q-1 -3 -2 -8t-1.5 -15.5t-0.5 -29.5v-51v-51t0.5 -29.5t1.5 -15t2 -7.5q8 -22 31 -22z" />
      <glyph d="M61 -180q-10 0 -10 10v111q0 10 10 10h14q27 1 40 10.5t18 32.5l5 22l-128 461q-3 10 8 10h127q10 0 12 -10l46 -254h2l49 254q2 10 12 10h121q11 0 8 -10l-131 -491q-13 -49 -29.5 -81t-38.5 -51t-51.5 -26.5t-69.5 -7.5h-14zM240 551q-10 0 -10 10v110q0 10 10 10h91
q10 0 10 -10v-110q0 -10 -10 -10h-91zM77 551q-10 0 -10 10v110q0 10 10 10h91q10 0 10 -10v-110q0 -10 -10 -10h-91z" />
      <glyph />
      <glyph />
      <glyph d="M218 747q-6 0 -10 2.5t-9 7.5l-110 122q-3 4 -1.5 7t6.5 3h120q6 0 9 -2.5t7 -7.5l89 -122q3 -4 1 -7t-7 -3h-95z" />
      <glyph d="M135 747q-5 0 -7 3t1 7l88 122q4 5 7 7.5t9 2.5h121q5 0 6.5 -3t-1.5 -7l-110 -122q-5 -5 -9 -7.5t-10 -2.5h-95z" />
      <glyph d="M289 740q-10 0 -19 10l-47 56h-2l-47 -56q-9 -10 -19 -10h-81q-5 0 -6 3t2 7l94 137q7 10 17 10h82q10 0 17 -10l93 -137q3 -4 2 -7t-6 -3h-80z" />
      <glyph d="M181 734q-10 0 -17 10l-94 137q-3 4 -2 7t6 3h81q10 0 19 -10l47 -56h2l47 56q9 10 19 10h80q5 0 6 -3t-2 -7l-93 -137q-7 -10 -17 -10h-82z" />
      <glyph d="M176 475q-10 0 -10 10v185q0 10 10 10h93q10 0 10 -10v-84q0 -14 -9 -24l-82 -81q-5 -6 -12 -6z" />
      <glyph d="M276 744q-19 0 -32.5 5.5t-27.5 13.5q-13 8 -24 13t-26 5q-20 0 -34 -8.5t-28 -22.5q-4 -4 -7.5 -3t-3.5 6v87q0 5 1 8.5t6 8.5q14 14 30 22t37 8q19 0 32.5 -5.5t27.5 -13.5q13 -8 24 -13t26 -5q20 0 34 8.5t28 22.5q4 4 7.5 3t3.5 -6v-87q0 -5 -1 -8.5t-6 -8.5
q-14 -14 -30 -22t-37 -8z" />
      <glyph d="M258 750q-10 0 -10 10v110q0 10 10 10h91q10 0 10 -10v-110q0 -10 -10 -10h-91zM95 750q-10 0 -10 10v110q0 10 10 10h91q10 0 10 -10v-110q0 -10 -10 -10h-91z" />
      <glyph d="M100 761q-10 0 -10 10v89q0 10 10 10h244q10 0 10 -10v-89q0 -10 -10 -10h-244z" />
      <glyph d="M222 731q-34 0 -60 10.5t-43.5 29.5t-27 44t-10.5 54q0 11 13 11h60q6 0 9 -3t5 -8q8 -20 21 -31t33 -11t33 11t21 31q2 5 5 8t9 3h60q13 0 13 -11q-1 -29 -10.5 -54t-27.5 -44t-44 -29.5t-59 -10.5z" />
      <glyph d="M222 709q-45 0 -74 28.5t-29 72.5q0 45 29 73.5t74 28.5t74 -28.5t29 -73.5q0 -44 -29 -72.5t-74 -28.5zM222 767q17 0 29 12t12 31q0 20 -12 32t-29 12q-18 0 -29.5 -12t-11.5 -32q0 -19 11.5 -31t29.5 -12z" />
      <glyph d="M238 747q-11 0 -6 10l72 119q3 5 6.5 7.5t9.5 2.5h99q5 0 6 -3t-2 -7l-86 -119q-5 -5 -8.5 -7.5t-10.5 -2.5h-80zM82 747q-5 0 -6.5 2.5t1.5 7.5l71 119q3 5 6.5 7.5t9.5 2.5h99q5 0 6 -3t-1 -7l-87 -119q-7 -10 -18 -10h-81z" />
      <glyph d="M156 750q-10 0 -10 10v110q0 10 10 10h131q10 0 10 -10v-110q0 -10 -10 -10h-131z" />
      <glyph d="M173 -242q-11 0 -11 11v170q0 10 10 10h100q10 0 10 -10v-67q0 -14 -9 -24l-88 -84q-5 -6 -12 -6z" />
      <glyph d="M172 550q-10 0 -10 10v67q0 14 10 24l87 84q6 6 13 6q10 0 10 -11v-170q0 -10 -10 -10h-100z" />
      <glyph d="M15 0q-10 0 -8 10l149 660q3 10 12 10h155q10 0 12 -10l146 -660q3 -10 -8 -10h-458zM296 140q6 0 5 6l-54 313h-2l-56 -313q-2 -6 5 -6h102z" />
      <glyph d="M268 0q-10 0 -10 10v106q0 8 8 16q6 6 9 14.5t4.5 31.5t2 66.5t0.5 120.5v78.5t-1 44.5t-2 22t-2 11q-10 27 -39 27t-39 -27q-2 -5 -3 -11t-1.5 -22t-1 -44.5t-0.5 -78.5q0 -77 0.5 -120.5t2.5 -66.5t5 -31.5t9 -14.5q3 -4 5.5 -7.5t2.5 -8.5v-106q0 -10 -10 -10h-170
q-10 0 -10 10v114q0 10 10 10h42v1q-13 11 -22 25t-15 38t-9 62.5t-3 100.5q0 52 1 85t2.5 55t4.5 35.5t7 26.5q20 62 68.5 94.5t123.5 32.5t123 -32.5t68 -94.5q4 -13 7.5 -26.5t5 -35.5t2.5 -55t1 -85q0 -62 -3 -100.5t-9 -62.5t-15.5 -38t-21.5 -25v-1h42q10 0 10 -10
v-114q0 -10 -10 -10h-170z" />
      <glyph d="M260 0q-10 0 -10 10v37h-1q-8 -21 -22 -33t-33 -17q-2 0 -4.5 0.5t-3.5 0.5v-168q0 -10 -10 -10h-131q-10 0 -10 10v647q0 10 10 10h131q10 0 10 -10v-311q0 -24 7.5 -34.5t24.5 -10.5q16 0 24 10.5t8 34.5v311q0 10 10 10h131q10 0 10 -10v-467q0 -10 -10 -10h-131z" />
      <glyph d="M218 -10q-67 0 -111 29t-61 83q-3 10 -6 22t-4.5 28t-2.5 38t-1 53t1 53.5t2.5 38.5t4.5 27.5t6 22.5q17 54 61 83t111 29q68 0 112 -29t61 -83q3 -11 5.5 -22.5t4 -27.5t2.5 -38.5t1 -53.5t-1 -53t-2.5 -38t-4 -28t-5.5 -22q-17 -54 -61 -83t-112 -29zM218 118
q25 0 30 21q1 3 2 8t1.5 15.5t0.5 29.5v51v51.5t-0.5 30t-1.5 15.5t-2 8q-6 21 -30 21q-23 0 -29 -21q-1 -3 -2 -8t-1.5 -15.5t-0.5 -30v-51.5v-51t0.5 -30t1.5 -15.5t2 -7.5q6 -21 29 -21z" />
      <glyph d="M182 0q-10 0 -10 10v325h-2l-90 -31q-12 -5 -12 8v119q0 5 1.5 8.5t6.5 5.5l92 38q8 4 17 4h128q10 0 10 -10v-467q0 -10 -10 -10h-131z" />
      <glyph d="M45 0q-10 0 -10 10v97q0 12 8 18l161 117q13 10 21.5 18t14 17t7.5 20t2 27t-4 25q-7 20 -30 20t-30 -20q-2 -5 -3 -14.5t-1 -27.5q0 -12 -12 -10l-124 12q-10 1 -10 12q0 17 2.5 35t7.5 33q17 52 60 80t113 28q69 0 112 -28t60 -79q10 -29 10 -66q0 -26 -5 -46.5
t-14 -37t-22 -30t-30 -26.5l-78 -61v-1h139q10 0 10 -10v-102q0 -10 -10 -10h-345z" />
      <glyph d="M215 -190q-70 0 -113 29t-60 81q-10 29 -10 70q0 11 10 12l125 12q12 2 12 -10q0 -23 0.5 -31.5t2.5 -13.5q8 -21 30 -21q23 0 31 21q2 5 2.5 16.5t0.5 49.5q0 35 -0.5 46.5t-2.5 16.5q-9 24 -42 24h-34q-10 0 -10 10v114q0 10 5 15l75 100v3h-186q-10 0 -10 10v113
q0 10 10 10h336q10 0 10 -10v-115q0 -8 -5 -15l-89 -115v-2q26 -7 48.5 -23t34.5 -54q3 -10 5.5 -20.5t3.5 -25t1.5 -34t0.5 -48.5q0 -45 -2.5 -68t-7.5 -38q-17 -51 -60 -80t-112 -29z" />
      <glyph d="M244 -180q-10 0 -10 10v164q0 6 -6 6h-204q-10 0 -10 10v121q0 4 2 10l114 345q3 8 11 8h130q10 0 7 -11l-111 -348v-2h61q6 0 6 6v91q0 10 10 10h124q10 0 10 -10v-91q0 -6 5 -6h27q10 0 10 -10v-113q0 -10 -10 -10h-26q-6 0 -6 -6v-164q0 -10 -10 -10h-124z" />
      <glyph d="M221 -190q-70 0 -113 29t-60 81q-5 15 -7.5 31.5t-2.5 32.5q0 11 10 12l125 13q12 2 12 -10q0 -19 0.5 -27t2.5 -13q8 -21 30 -21q23 0 31 21q1 3 1.5 6.5t1 11.5t0.5 22v37v36.5t-0.5 21.5t-1 11.5t-1.5 6.5q-8 21 -31 21q-25 0 -33 -24q-3 -10 -13 -10h-115q-9 0 -9 10
v368q0 10 10 10h333q10 0 10 -10v-113q0 -10 -10 -10h-204q-6 0 -6 -6v-114h2q11 9 29.5 16t47.5 7q51 0 84 -21t47 -67q3 -9 5 -19.5t3.5 -25.5t2.5 -36.5t1 -51.5q0 -27 -0.5 -46t-2 -32.5t-3 -22.5t-4.5 -16q-17 -51 -60 -80t-112 -29z" />
      <glyph d="M219 -10q-69 0 -113 28t-61 82q-5 16 -8 37t-3 64q0 34 2.5 60t7 48.5t12 42.5t17.5 42l127 278q5 8 15 8h132q12 0 7 -12l-116 -261l2 -2q8 4 25 4q50 0 81 -26t47 -73q5 -17 8 -40.5t3 -68.5q0 -43 -2.5 -64t-7.5 -37q-17 -54 -61.5 -82t-113.5 -28zM219 118
q24 0 30 21q1 3 2 6.5t1.5 10t0.5 17.5v28q0 34 -1 45t-3 16q-6 21 -30 21t-30 -21q-2 -5 -2.5 -16t-0.5 -45v-28t0.5 -17.5t1 -10t1.5 -6.5q6 -21 30 -21z" />
      <glyph d="M97 -180q-10 0 -7 12l163 523v2h-81q-6 0 -6 -6v-50q0 -10 -10 -10h-109q-10 0 -10 10v176q0 10 10 10h348q10 0 10 -10v-105q0 -5 -2 -13l-161 -529q-3 -10 -13 -10h-132z" />
      <glyph d="M219 -10q-69 0 -113 28t-61 82q-5 16 -8 36.5t-3 61.5q0 35 2.5 54.5t8.5 36.5q8 24 21.5 40t28.5 25v2q-36 22 -52 70q-5 15 -7 31.5t-2 39.5q0 29 3 48t8 35q17 54 61 82t113 28t113.5 -28t61.5 -82q5 -16 7.5 -35t2.5 -48q0 -23 -2 -39.5t-7 -31.5q-16 -48 -51 -70v-2
q15 -9 28.5 -25t21.5 -40q5 -17 7.5 -36.5t2.5 -54.5q0 -41 -2.5 -61.5t-7.5 -36.5q-17 -54 -61.5 -82t-113.5 -28zM219 413q24 0 30 21q2 5 3 14.5t1 38.5t-1 39t-3 15q-6 21 -30 21t-30 -21q-2 -5 -2.5 -15t-0.5 -39t0.5 -38.5t2.5 -14.5q6 -21 30 -21zM219 118
q24 0 30 21q2 5 3 16.5t1 46.5q0 34 -1 45.5t-3 16.5q-6 21 -30 21t-30 -21q-2 -5 -2.5 -16.5t-0.5 -45.5q0 -35 0.5 -46.5t2.5 -16.5q6 -21 30 -21z" />
      <glyph d="M97 -180q-12 0 -7 12l110 248q-2 0 -2 2q-10 -4 -25 -4q-50 0 -81 26t-47 73q-6 17 -9 40.5t-3 68.5q0 43 3 64t8 37q17 53 61 81.5t113 28.5t113.5 -28.5t61.5 -81.5q5 -16 7.5 -37t2.5 -64q0 -34 -2.5 -60t-7 -48.5t-12 -42.5t-17.5 -42l-121 -265q-5 -8 -15 -8h-131z
M218 203q24 0 30 21q1 3 2 6.5t1.5 10t0.5 17.5v28q0 34 -1 45t-3 17q-6 21 -30 21t-30 -21q-2 -6 -2.5 -17t-0.5 -45v-28t0.5 -17.5t1 -10t1.5 -6.5q6 -21 30 -21z" />
      <glyph d="M47 103q-3 10 -6 24t-4.5 39.5t-2.5 66.5t-1 107t1 107t2.5 66.5t4.5 39t6 24.5q18 55 61.5 84t110.5 29t110.5 -29t61.5 -84q3 -11 6 -24.5t4.5 -39t2.5 -66.5t1 -107t-1 -107t-2.5 -66.5t-4.5 -39.5t-6 -24q-18 -55 -61.5 -84t-110.5 -29t-110.5 29t-61.5 84zM189 139
q6 -21 30 -21t30 21q1 3 2 9t1.5 26t0.5 59v107v107t-0.5 59t-1.5 26t-2 9q-6 21 -30 21t-30 -21q-1 -3 -2 -9t-1.5 -26t-0.5 -59v-107v-107t0.5 -59t1.5 -26t2 -9z" />
      <glyph d="M118 512h-2l-84 -59q-4 -3 -7.5 -1.5t-3.5 8.5v134q0 8 8 15l88 65q7 6 16 6h126q10 0 10 -10v-660q0 -10 -10 -10h-131q-10 0 -10 10v502z" />
      <glyph d="M31 118q0 10 5 18l172 250q10 15 17 27t11.5 25t6 27.5t1.5 35.5q0 19 -0.5 27t-2.5 13q-8 21 -30 21q-23 0 -31 -21q-2 -5 -2.5 -14.5t-0.5 -38.5q0 -12 -12 -10l-124 12q-10 1 -10 12q0 26 2 44.5t7 34.5q16 52 60 80.5t113 28.5q70 0 113 -29t60 -80q5 -15 7 -34
t2 -46q0 -29 -2.5 -51.5t-9 -43t-17 -40t-26.5 -41.5l-134 -191v-1h179q10 0 10 -10v-113q0 -10 -10 -10h-344q-10 0 -10 10v108z" />
      <glyph d="M41 99q-10 30 -10 71q0 11 10 12l124 12q12 2 12 -10q0 -23 1 -32t3 -14q8 -20 30 -20q24 0 30 21q2 5 2.5 16t0.5 45q0 33 -0.5 44.5t-2.5 16.5q-4 12 -13.5 16.5t-25.5 4.5h-16q-10 0 -10 10v114q0 10 10 10h19q29 0 36 20q1 4 2 14.5t1 43.5q0 23 -0.5 32.5t-2.5 14.5
q-6 21 -30 21q-22 0 -30 -20q-4 -9 -4 -46q0 -12 -12 -10l-124 12q-10 1 -10 12q0 41 10 71q17 51 60 80t112 29q70 0 112.5 -28.5t59.5 -80.5q5 -15 7.5 -35t2.5 -52q0 -26 -2 -42t-7 -30q-14 -42 -55 -66v-2q21 -12 34.5 -27.5t21.5 -38.5q4 -13 6 -31t2 -59t-2.5 -62.5
t-7.5 -36.5q-17 -52 -59.5 -80.5t-112.5 -28.5q-69 0 -112 29t-60 80z" />
      <glyph d="M39 104q-10 0 -10 10v122q0 5 2 11l129 425q3 8 11 8h130q10 0 7 -10l-128 -431v-2h61q6 0 6 6v119q0 10 10 10h122q10 0 10 -10v-119q0 -6 5 -6h26q10 0 10 -10v-113q0 -10 -10 -10h-25q-6 0 -6 -6v-88q0 -10 -10 -10h-122q-10 0 -10 10v88q0 6 -6 6h-202z" />
      <glyph d="M45 99q-5 16 -7 32.5t-2 33.5q0 11 10 12l124 12q12 2 12 -10q0 -19 0.5 -27t2.5 -13q8 -21 31 -21q22 0 30 21q1 3 1.5 6.5t1 12.5t0.5 24v40v40t-0.5 24t-1 12.5t-1.5 6.5q-8 21 -31 21q-25 0 -33 -25q-3 -10 -13 -10h-115q-9 0 -9 10v369q0 10 10 10h333q10 0 10 -10
v-113q0 -10 -10 -10h-204q-6 0 -6 -6v-115h2q11 9 29.5 16.5t47.5 7.5q102 0 131 -88q3 -9 5.5 -20t4 -27t2 -38t0.5 -55q0 -29 -0.5 -49t-1.5 -34t-3 -23.5t-4 -16.5q-17 -51 -60.5 -80t-112.5 -29t-113 28.5t-60 80.5z" />
      <glyph d="M43 100q-5 16 -7.5 37t-2.5 64q0 34 2 60t6.5 48.5t12 42.5t17.5 42l127 277q4 9 15 9h132q12 0 7 -12l-116 -261l2 -2q8 4 25 4q50 0 81.5 -26t46.5 -73q5 -17 8 -40.5t3 -68.5q0 -43 -2.5 -64t-7.5 -37q-17 -54 -61.5 -82t-113.5 -28t-113 28t-61 82zM187 139
q8 -21 30 -21q23 0 31 21q1 3 1.5 6.5t1 10t0.5 17.5v28q0 34 -1 45t-2 16q-8 21 -31 21t-30 -21q-2 -5 -2.5 -16t-0.5 -45v-28t0.5 -17.5t1 -10t1.5 -6.5z" />
      <glyph d="M247 548v2h-81q-6 0 -6 -6v-49q0 -10 -10 -10h-109q-10 0 -10 10v175q0 10 10 10h348q10 0 10 -10v-106q0 -4 -0.5 -6.5t-1.5 -5.5l-164 -542q-3 -10 -13 -10h-132q-12 0 -7 12z" />
      <glyph d="M43 100q-5 16 -7.5 36.5t-2.5 61.5q0 35 2 54.5t8 36.5q8 24 21.5 40t28.5 25v2q-37 22 -51 70q-5 15 -7 31.5t-2 39.5q0 29 2.5 48t7.5 35q17 54 61 82t113 28t113.5 -28t61.5 -82q5 -16 7.5 -35t2.5 -48q0 -23 -2 -39.5t-7 -31.5q-8 -25 -21 -42t-30 -28v-2
q15 -9 28.5 -25t21.5 -40q6 -17 8 -36.5t2 -54.5q0 -41 -2.5 -61.5t-7.5 -36.5q-17 -54 -61.5 -82t-113.5 -28t-113 28t-61 82zM217 413q23 0 31 21q2 5 2.5 14.5t0.5 38.5t-0.5 39t-2.5 15q-8 21 -31 21q-22 0 -30 -21q-2 -5 -2.5 -15t-0.5 -39t0.5 -38.5t2.5 -14.5
q7 -21 30 -21zM187 139q8 -21 30 -21q23 0 31 21q2 5 2.5 16t0.5 47q0 35 -0.5 46t-2.5 16q-8 21 -31 21q-22 0 -30 -21q-2 -5 -2.5 -16t-0.5 -46q0 -36 0.5 -47t2.5 -16z" />
      <glyph d="M199 273l-2 2q-8 -4 -25 -4q-50 0 -81.5 26t-46.5 73q-5 17 -8 40.5t-3 68.5q0 43 2.5 64t7.5 37q17 54 61.5 82t113.5 28t113 -28t61 -82q5 -16 7.5 -37t2.5 -64q0 -34 -2 -60t-6.5 -48.5t-12 -42.5t-17.5 -42l-127 -277q-5 -9 -15 -9h-132q-12 0 -7 12zM218 397
q22 0 30 21q1 3 1.5 6t1 9.5t0.5 17.5v28q0 34 -1 45.5t-2 16.5q-8 21 -30 21q-23 0 -31 -21q-2 -5 -2.5 -16.5t-0.5 -45.5v-28t0.5 -17.5t1 -9.5t1.5 -6q7 -21 31 -21z" />
      <glyph d="M245 -10q-70 0 -111 28.5t-58 82.5q-3 10 -5.5 21.5t-4 26t-2.5 34t-1 45.5q0 6 -6 6h-33q-10 0 -10 10v66q0 10 10 10h33q6 0 6 6v30q0 6 -6 6h-33q-10 0 -10 10v65q0 10 10 10h33q6 0 6 6q0 52 3 79t10 47q17 54 58 82.5t111 28.5q87 0 131 -42t49 -113q1 -11 -9 -12
l-123 -20q-10 -2 -12 9q-2 26 -9.5 38t-24.5 12q-21 0 -29 -21q-1 -4 -2 -8.5t-1.5 -13.5t-0.5 -24.5v-41.5q0 -6 6 -6h126q10 0 10 -10l-10 -65q-1 -10 -10 -10h-116q-6 0 -6 -6v-30q0 -6 6 -6h111q10 0 10 -10l-10 -66q-1 -10 -10 -10h-101q-6 0 -6 -6v-42t0.5 -25
t1.5 -13.5t2 -8.5q8 -21 29 -21q17 0 24.5 12t9.5 38q2 11 12 9l123 -20q10 -2 9 -12q-5 -71 -49 -113t-131 -42z" />
      <glyph d="M388 130q-6 -58 -40 -93.5t-94 -43.5v-80q0 -10 -10 -10h-65q-10 0 -10 10v81q-97 17 -125 105q-4 11 -6.5 23t-4 28.5t-2 38.5t-0.5 54t0.5 54.5t2 39t4 28.5t6.5 23q28 88 125 105v80q0 10 10 10h65q10 0 10 -10v-79q60 -9 94 -44t40 -93q2 -11 -7 -12l-117 -20
q-12 -2 -12 8q-4 36 -35 36q-14 0 -20.5 -5t-10.5 -15q-1 -3 -2 -7.5t-1.5 -15.5t-0.5 -30.5v-52.5v-52t0.5 -30t1.5 -15.5t2 -7.5q4 -10 10.5 -15t20.5 -5q31 0 35 36q0 9 12 8l117 -20q9 -1 7 -12z" />
      <glyph d="M171 -7q-78 10 -111 57.5t-35 123.5q0 11 8 12l122 21q11 1 11 -9q2 -48 12.5 -64t33.5 -16q21 0 30.5 13.5t9.5 57.5q0 20 -2.5 34t-9 24t-18 17.5t-29.5 14.5l-41 16q-65 25 -93 69.5t-28 124.5q0 87 34 137t106 61v61q0 10 10 10h69q10 0 10 -10v-62q67 -11 99 -54
t38 -114q0 -10 -9 -11l-121 -19q-9 -2 -11 8q-2 38 -11 52t-29 14t-28.5 -13t-8.5 -46q0 -16 2 -27.5t8.5 -20.5t18.5 -17t31 -15l41 -16q34 -13 57 -30t37 -41t20 -55.5t6 -74.5q0 -190 -140 -212v-68q0 -10 -10 -10h-69q-10 0 -10 10v67z" />
      <glyph d="M49 0q-10 0 -10 10v105q0 8 6 14q14 16 19 34t5 56v49q0 6 -6 6h-27q-10 0 -10 10v84q0 10 10 10h27q6 0 6 6v131q0 86 46.5 130.5t131.5 44.5q89 0 132 -45.5t45 -114.5q1 -11 -9 -12l-125 -19q-9 -1 -11 9q-1 30 -7.5 42t-22.5 12q-29 0 -29 -44v-134q0 -6 6 -6h102
q10 0 10 -10v-84q0 -10 -10 -10h-102q-6 0 -6 -6v-51q0 -29 -5.5 -50t-19.5 -36v-3h215q10 0 10 -10v-108q0 -10 -10 -10h-361z" />
      <glyph d="M300 307l-43 -321q-12 -88 -58 -127t-137 -39h-30q-10 0 -10 10v104q0 10 10 10h14q29 0 43.5 11t18.5 38l43 314h-58q-10 0 -10 10v93q0 10 10 10h73l13 94q12 88 58 127t137 39h30q10 0 10 -10v-104q0 -10 -10 -10h-14q-29 0 -43.5 -11t-18.5 -38l-12 -87h61
q10 0 10 -10v-93q0 -10 -10 -10h-77z" />
      <glyph d="M154 0q-10 0 -10 10v83q0 6 -6 6h-83q-10 0 -10 10v69q0 10 10 10h83q6 0 6 6v27q0 6 -6 6h-83q-10 0 -10 10v68q0 10 10 10h72v3l-112 352q-3 10 8 10h131q10 0 12 -10l54 -234h3l52 234q2 10 12 10h129q11 0 8 -10l-112 -352v-3h72q10 0 10 -10v-68q0 -10 -10 -10h-83
q-6 0 -6 -6v-27q0 -6 6 -6h83q10 0 10 -10v-69q0 -10 -10 -10h-83q-6 0 -6 -6v-83q0 -10 -10 -10h-131z" />
      <glyph d="M218 -10q-67 0 -111 29t-61 83q-3 10 -6 22t-4.5 28t-2.5 38t-1 53t1 53.5t2.5 38.5t4.5 27.5t6 22.5q17 54 61 83t111 29q68 0 112 -29t61 -83q3 -11 5.5 -22.5t4 -27.5t2.5 -38.5t1 -53.5t-1 -53t-2.5 -38t-4 -28t-5.5 -22q-17 -54 -61 -83t-112 -29zM218 118
q25 0 30 21q1 3 2 8t1.5 15.5t0.5 29.5v51v51.5t-0.5 30t-1.5 15.5t-2 8q-6 21 -30 21q-23 0 -29 -21q-1 -3 -2 -8t-1.5 -15.5t-0.5 -30v-51.5v-51t0.5 -30t1.5 -15.5t2 -7.5q6 -21 29 -21z" />
      <glyph d="M131 0q-10 0 -10 10v325h-2l-90 -31q-12 -5 -12 8v119q0 5 1.5 8.5t6.5 5.5l92 38q8 4 17 4h128q10 0 10 -10v-467q0 -10 -10 -10h-131z" />
      <glyph d="M41 0q-10 0 -10 10v97q0 12 8 18l161 117q13 10 21.5 18t14 17t7.5 20t2 27t-4 25q-7 20 -30 20t-30 -20q-2 -5 -3 -14.5t-1 -27.5q0 -12 -12 -10l-124 12q-10 1 -10 12q0 17 2.5 35t7.5 33q17 52 60 80t113 28q69 0 112 -28t60 -79q10 -29 10 -66q0 -26 -5 -46.5
t-14 -37t-22 -30t-30 -26.5l-78 -61v-1h139q10 0 10 -10v-102q0 -10 -10 -10h-345z" />
      <glyph d="M210 -190q-70 0 -113 29t-60 81q-10 29 -10 70q0 11 10 12l125 12q12 2 12 -10q0 -23 0.5 -31.5t2.5 -13.5q8 -21 30 -21q23 0 31 21q2 5 2.5 16.5t0.5 49.5q0 35 -0.5 46.5t-2.5 16.5q-9 24 -42 24h-34q-10 0 -10 10v114q0 10 5 15l75 100v3h-186q-10 0 -10 10v113
q0 10 10 10h336q10 0 10 -10v-115q0 -8 -5 -15l-89 -115v-2q26 -7 48.5 -23t34.5 -54q3 -10 5.5 -20.5t3.5 -25t1.5 -34t0.5 -48.5q0 -45 -2.5 -68t-7.5 -38q-17 -51 -60 -80t-112 -29z" />
      <glyph d="M256 -180q-10 0 -10 10v164q0 6 -6 6h-204q-10 0 -10 10v121q0 4 2 10l114 345q3 8 11 8h130q10 0 7 -11l-111 -348v-2h61q6 0 6 6v91q0 10 10 10h124q10 0 10 -10v-91q0 -6 5 -6h27q10 0 10 -10v-113q0 -10 -10 -10h-26q-6 0 -6 -6v-164q0 -10 -10 -10h-124z" />
      <glyph d="M218 -190q-70 0 -113 29t-60 81q-5 15 -7.5 31.5t-2.5 32.5q0 11 10 12l125 13q12 2 12 -10q0 -19 0.5 -27t2.5 -13q8 -21 30 -21q23 0 31 21q1 3 1.5 6.5t1 11.5t0.5 22v37v36.5t-0.5 21.5t-1 11.5t-1.5 6.5q-8 21 -31 21q-25 0 -33 -24q-3 -10 -13 -10h-115q-9 0 -9 10
v368q0 10 10 10h333q10 0 10 -10v-113q0 -10 -10 -10h-204q-6 0 -6 -6v-114h2q11 9 29.5 16t47.5 7q51 0 84 -21t47 -67q3 -9 5 -19.5t3.5 -25.5t2.5 -36.5t1 -51.5q0 -27 -0.5 -46t-2 -32.5t-3 -22.5t-4.5 -16q-17 -51 -60 -80t-112 -29z" />
      <glyph d="M218 -10q-69 0 -113 28t-61 82q-5 16 -8 37t-3 64q0 34 2.5 60t7 48.5t12 42.5t17.5 42l127 278q5 8 15 8h132q12 0 7 -12l-116 -261l2 -2q8 4 25 4q50 0 81 -26t47 -73q5 -17 8 -40.5t3 -68.5q0 -43 -2.5 -64t-7.5 -37q-17 -54 -61.5 -82t-113.5 -28zM218 118
q24 0 30 21q1 3 2 6.5t1.5 10t0.5 17.5v28q0 34 -1 45t-3 16q-6 21 -30 21t-30 -21q-2 -5 -2.5 -16t-0.5 -45v-28t0.5 -17.5t1 -10t1.5 -6.5q6 -21 30 -21z" />
      <glyph d="M91 -180q-10 0 -7 12l163 523v2h-81q-6 0 -6 -6v-50q0 -10 -10 -10h-109q-10 0 -10 10v176q0 10 10 10h348q10 0 10 -10v-105q0 -5 -2 -13l-161 -529q-3 -10 -13 -10h-132z" />
      <glyph d="M218 -10q-69 0 -113 28t-61 82q-5 16 -8 36.5t-3 61.5q0 35 2.5 54.5t8.5 36.5q8 24 21.5 40t28.5 25v2q-36 22 -52 70q-5 15 -7 31.5t-2 39.5q0 29 3 48t8 35q17 54 61 82t113 28t113.5 -28t61.5 -82q5 -16 7.5 -35t2.5 -48q0 -23 -2 -39.5t-7 -31.5q-16 -48 -51 -70v-2
q15 -9 28.5 -25t21.5 -40q5 -17 7.5 -36.5t2.5 -54.5q0 -41 -2.5 -61.5t-7.5 -36.5q-17 -54 -61.5 -82t-113.5 -28zM218 413q24 0 30 21q2 5 3 14.5t1 38.5t-1 39t-3 15q-6 21 -30 21t-30 -21q-2 -5 -2.5 -15t-0.5 -39t0.5 -38.5t2.5 -14.5q6 -21 30 -21zM218 118
q24 0 30 21q2 5 3 16.5t1 46.5q0 34 -1 45.5t-3 16.5q-6 21 -30 21t-30 -21q-2 -5 -2.5 -16.5t-0.5 -45.5q0 -35 0.5 -46.5t2.5 -16.5q6 -21 30 -21z" />
      <glyph d="M97 -180q-12 0 -7 12l110 248q-2 0 -2 2q-10 -4 -25 -4q-50 0 -81 26t-47 73q-6 17 -9 40.5t-3 68.5q0 43 3 64t8 37q17 53 61 81.5t113 28.5t113.5 -28.5t61.5 -81.5q5 -16 7.5 -37t2.5 -64q0 -34 -2.5 -60t-7 -48.5t-12 -42.5t-17.5 -42l-121 -265q-5 -8 -15 -8h-131z
M218 203q24 0 30 21q1 3 2 6.5t1.5 10t0.5 17.5v28q0 34 -1 45t-3 17q-6 21 -30 21t-30 -21q-2 -6 -2.5 -17t-0.5 -45v-28t0.5 -17.5t1 -10t1.5 -6.5q6 -21 30 -21z" />
      <glyph d="M134 430q-10 0 -10 10v276h-2l-56 -33q-4 -2 -7 -1t-3 6v92q0 9 7 13l58 37q9 6 16 6h89q10 0 10 -10v-386q0 -10 -10 -10h-92z" />
      <glyph d="M46 430q-10 0 -10 10v71q0 10 6 16l114 141q14 16 17.5 25.5t3.5 24.5q0 18 -3 24q-5 11 -19 11q-17 0 -20 -12q-2 -5 -2 -10v-19q0 -12 -12 -10l-84 9q-10 1 -10 12q0 18 1.5 28.5t4.5 19.5q11 34 43 53t82 19q49 0 81.5 -18.5t43.5 -53.5q3 -9 4.5 -20t1.5 -32
q0 -29 -8.5 -50.5t-28.5 -47.5l-70 -94v-2h92q10 0 10 -10v-75q0 -10 -10 -10h-228z" />
      <glyph d="M157 423q-50 0 -82 19t-43 53q-6 16 -6 34q0 11 10 12l85 8q12 2 12 -10q0 -9 2 -15q4 -11 20 -11q15 0 19 13q1 3 1.5 8t0.5 17q0 11 -0.5 15.5t-1.5 8.5q-4 14 -25 14h-7q-10 0 -10 10v77q0 10 10 10h11q16 0 21 12q2 4 2 21q0 9 -0.5 13.5t-1.5 7.5q-4 13 -19 13
q-16 0 -20 -11q-2 -6 -2 -15q0 -12 -12 -10l-85 8q-10 1 -10 12q0 17 6 34q11 34 43 53t82 19t82.5 -19t43.5 -53q2 -8 3.5 -18.5t1.5 -25.5q0 -14 -1 -23t-3 -17q-10 -29 -41 -44v-2q30 -15 40 -44q3 -9 4 -20t1 -30q0 -21 -1.5 -32.5t-3.5 -19.5q-11 -34 -43.5 -53
t-82.5 -19z" />
      <glyph d="M258 0q-10 0 -10 10v38h-1q-13 -27 -37 -42.5t-60 -15.5q-44 0 -69 18t-39 59q-4 12 -6.5 25.5t-4.5 34t-3 48.5t-1 68t1 68.5t3 49t4.5 34t6.5 25.5q14 41 39 59t69 18q36 0 60 -15.5t37 -42.5h1v38q0 10 10 10h130q10 0 10 -10v-467q0 -10 -10 -10h-130zM213 118
q22 0 30 22q1 3 2 7.5t1.5 15t0.5 29.5v51v51t-0.5 29.5t-1.5 15.5t-2 8q-8 22 -30 22q-23 0 -31 -22q-1 -3 -2 -8t-1.5 -15.5t-0.5 -29.5v-51v-51t0.5 -29.5t1.5 -15t2 -7.5q8 -22 31 -22z" />
      <glyph d="M258 0q-10 0 -10 10v38h-1q-13 -27 -37 -42.5t-60 -15.5q-44 0 -69 18t-39 59q-4 12 -6.5 25.5t-4.5 34t-3 48.5t-1 68t1 68.5t3 49t4.5 34t6.5 25.5q14 41 39 59t69 18q36 0 60 -15.5t37 -42.5h1v38q0 10 10 10h130q10 0 10 -10v-467q0 -10 -10 -10h-130zM213 118
q22 0 30 22q1 3 2 7.5t1.5 15t0.5 29.5v51v51t-0.5 29.5t-1.5 15.5t-2 8q-8 22 -30 22q-23 0 -31 -22q-1 -3 -2 -8t-1.5 -15.5t-0.5 -29.5v-51v-51t0.5 -29.5t1.5 -15t2 -7.5q8 -22 31 -22zM182 546q-11 0 -18 10l-97 136q-3 4 -1.5 7t6.5 3h121q10 0 16 -10l75 -136
q5 -10 -6 -10h-96z" />
      <glyph d="M258 0q-10 0 -10 10v38h-1q-13 -27 -37 -42.5t-60 -15.5q-44 0 -69 18t-39 59q-4 12 -6.5 25.5t-4.5 34t-3 48.5t-1 68t1 68.5t3 49t4.5 34t6.5 25.5q14 41 39 59t69 18q36 0 60 -15.5t37 -42.5h1v38q0 10 10 10h130q10 0 10 -10v-467q0 -10 -10 -10h-130zM213 118
q22 0 30 22q1 3 2 7.5t1.5 15t0.5 29.5v51v51t-0.5 29.5t-1.5 15.5t-2 8q-8 22 -30 22q-23 0 -31 -22q-1 -3 -2 -8t-1.5 -15.5t-0.5 -29.5v-51v-51t0.5 -29.5t1.5 -15t2 -7.5q8 -22 31 -22zM158 546q-11 0 -6 10l75 136q6 10 16 10h121q5 0 6.5 -3t-1.5 -7l-97 -136
q-8 -10 -18 -10h-96z" />
      <glyph d="M258 0q-10 0 -10 10v38h-1q-13 -27 -37 -42.5t-60 -15.5q-44 0 -69 18t-39 59q-4 12 -6.5 25.5t-4.5 34t-3 48.5t-1 68t1 68.5t3 49t4.5 34t6.5 25.5q14 41 39 59t69 18q36 0 60 -15.5t37 -42.5h1v38q0 10 10 10h130q10 0 10 -10v-467q0 -10 -10 -10h-130zM213 118
q22 0 30 22q1 3 2 7.5t1.5 15t0.5 29.5v51v51t-0.5 29.5t-1.5 15.5t-2 8q-8 22 -30 22q-23 0 -31 -22q-1 -3 -2 -8t-1.5 -15.5t-0.5 -29.5v-51v-51t0.5 -29.5t1.5 -15t2 -7.5q8 -22 31 -22zM291 545q-10 0 -19 10l-47 56h-2l-47 -56q-9 -10 -19 -10h-81q-5 0 -6 3t2 7
l94 136q7 10 17 10h82q10 0 17 -10l93 -136q3 -4 2 -7t-6 -3h-80z" />
      <glyph d="M258 0q-10 0 -10 10v38h-1q-13 -27 -37 -42.5t-60 -15.5q-44 0 -69 18t-39 59q-4 12 -6.5 25.5t-4.5 34t-3 48.5t-1 68t1 68.5t3 49t4.5 34t6.5 25.5q14 41 39 59t69 18q36 0 60 -15.5t37 -42.5h1v38q0 10 10 10h130q10 0 10 -10v-467q0 -10 -10 -10h-130zM213 118
q22 0 30 22q1 3 2 7.5t1.5 15t0.5 29.5v51v51t-0.5 29.5t-1.5 15.5t-2 8q-8 22 -30 22q-23 0 -31 -22q-1 -3 -2 -8t-1.5 -15.5t-0.5 -29.5v-51v-51t0.5 -29.5t1.5 -15t2 -7.5q8 -22 31 -22zM278 548q-19 0 -32.5 6t-27.5 14q-13 8 -24 13t-26 5q-20 0 -34 -8.5t-28 -22.5
q-4 -4 -7.5 -3t-3.5 6v87q0 9 7 16q14 14 30 22.5t37 8.5q19 0 32.5 -6t27.5 -14q13 -8 24 -12.5t26 -4.5q20 0 34 8.5t28 22.5q4 4 7.5 3t3.5 -6v-87q0 -6 -1 -9t-6 -8q-14 -14 -30 -22.5t-37 -8.5z" />
      </font>
</defs>
</svg>
