<?xml version="1.0" standalone="no"?>
<!DOCTYPE svg PUBLIC "-//W3C//DTD SVG 1.1//EN" "http://www.w3.org/Graphics/SVG/1.1/DTD/svg11.dtd"[]>
<svg xmlns="http://www.w3.org/2000/svg" xmlns:xlink="http://www.w3.org/1999/xlink" version="1.1">
  <metadata>
Created by FontForge 20201107 at Wed Feb 24 11:38:00 2010
 By Unknown
Copyright (c) 2010 Linotype GmbH, www.linotype.com. All rights reserved. This font software may not be reproduced, modified, disclosed or transferred without the express written approval of Linotype GmbH.
</metadata>
  <defs>
    <font id="DINNextLTPro-Condensed">
      <glyph d="M60 670q0 10 10 10h61q10 0 10 -10v-660q0 -10 -10 -10h-61q-10 0 -10 10v660zM225 32q-6 8 1 14l40 39q7 7 16 0q21 -18 47 -18q35 0 54 20t19 68v515q0 10 10 10h61q10 0 10 -10v-509q0 -88 -42.5 -129t-112.5 -41q-32 0 -59 10.5t-44 30.5z" />
      <glyph d="M65 588q-10 0 -10 10v72q0 10 10 10h63q10 0 10 -10v-72q0 -10 -10 -10h-63zM68 0q-10 0 -10 10v459q0 10 10 10h57q10 0 10 -10v-459q0 -10 -10 -10h-57zM258 588q-10 0 -10 10v72q0 10 10 10h63q10 0 10 -10v-72q0 -10 -10 -10h-63zM201 -180q-10 0 -10 10v52
q0 10 10 10h11q20 2 29.5 12.5t9.5 37.5v527q0 10 10 10h57q10 0 10 -10v-529q0 -61 -27.5 -90.5t-87.5 -29.5h-12z" />
      <glyph d="M13 524q-9 0 -9 9v137q0 10 10 10h52q10 0 10 -10v-50q0 -8 -1 -12.5t-5 -10.5l-45 -66q-4 -7 -12 -7zM272 0q-10 0 -10 10v319q0 87 -63 87q-30 0 -47 -21t-17 -66v-319q0 -10 -10 -10h-57q-10 0 -10 10v459q0 10 10 10h57q10 0 10 -10v-38h1q11 24 33.5 40.5t57.5 16.5
q56 0 84 -35.5t28 -111.5v-331q0 -10 -10 -10h-57z" />
      <glyph d="M84 0q-10 0 -10 10v402q0 6 -6 6h-29q-10 0 -10 10v41q0 10 10 10h29q6 0 6 6v63q0 63 28.5 97.5t96.5 34.5h18q10 0 10 -10v-53q0 -10 -10 -10h-23q-23 0 -33 -10t-10 -35v-77q0 -6 6 -6h60q10 0 10 -10v-41q0 -10 -10 -10h-60q-6 0 -6 -6v-402q0 -10 -10 -10h-57z
M327 0q-10 0 -10 10v402q0 6 -6 6h-29q-10 0 -10 10v41q0 10 10 10h29q6 0 6 6v63q0 63 28.5 97.5t96.5 34.5h18q10 0 10 -10v-53q0 -10 -10 -10h-23q-23 0 -33 -10t-10 -35v-77q0 -6 6 -6h60q10 0 10 -10v-41q0 -10 -10 -10h-60q-6 0 -6 -6v-402q0 -10 -10 -10h-57z" />
      <glyph d="M308 588q-10 0 -10 10v72q0 10 10 10h63q10 0 10 -10v-72q0 -10 -10 -10h-63zM311 0q-10 0 -10 10v459q0 10 10 10h57q10 0 10 -10v-459q0 -10 -10 -10h-57zM84 0q-10 0 -10 10v402q0 6 -6 6h-29q-10 0 -10 10v41q0 10 10 10h29q6 0 6 6v63q0 63 28.5 97.5t96.5 34.5h18
q10 0 10 -10v-53q0 -10 -10 -10h-23q-23 0 -33 -10t-10 -35v-77q0 -6 6 -6h60q10 0 10 -10v-41q0 -10 -10 -10h-60q-6 0 -6 -6v-402q0 -10 -10 -10h-57z" />
      <glyph d="M420 -4q-66 2 -92.5 32t-26.5 99v543q0 10 10 10h57q10 0 10 -10v-546q0 -26 9.5 -38.5t32.5 -16.5l5 -1q10 -2 10 -11v-52q0 -10 -10 -10zM84 0q-10 0 -10 10v402q0 6 -6 6h-29q-10 0 -10 10v41q0 10 10 10h29q6 0 6 6v63q0 63 28.5 97.5t96.5 34.5h18q10 0 10 -10v-53
q0 -10 -10 -10h-23q-23 0 -33 -10t-10 -35v-77q0 -6 6 -6h60q10 0 10 -10v-41q0 -10 -10 -10h-60q-6 0 -6 -6v-402q0 -10 -10 -10h-57z" />
      <glyph d="M552 588q-10 0 -10 10v72q0 10 10 10h63q10 0 10 -10v-72q0 -10 -10 -10h-63zM555 0q-10 0 -10 10v459q0 10 10 10h57q10 0 10 -10v-459q0 -10 -10 -10h-57zM84 0q-10 0 -10 10v402q0 6 -6 6h-29q-10 0 -10 10v41q0 10 10 10h29q6 0 6 6v63q0 63 28.5 97.5t96.5 34.5h18
q10 0 10 -10v-53q0 -10 -10 -10h-23q-23 0 -33 -10t-10 -35v-77q0 -6 6 -6h60q10 0 10 -10v-41q0 -10 -10 -10h-60q-6 0 -6 -6v-402q0 -10 -10 -10h-57zM327 0q-10 0 -10 10v402q0 6 -6 6h-29q-10 0 -10 10v41q0 10 10 10h29q6 0 6 6v63q0 63 28.5 97.5t96.5 34.5h18
q10 0 10 -10v-53q0 -10 -10 -10h-23q-23 0 -33 -10t-10 -35v-77q0 -6 6 -6h60q10 0 10 -10v-41q0 -10 -10 -10h-60q-6 0 -6 -6v-402q0 -10 -10 -10h-57z" />
      <glyph d="M664 -4q-66 2 -92.5 32t-26.5 99v543q0 10 10 10h57q10 0 10 -10v-546q0 -26 9.5 -38.5t32.5 -16.5l5 -1q10 -2 10 -11v-52q0 -10 -10 -10zM84 0q-10 0 -10 10v402q0 6 -6 6h-29q-10 0 -10 10v41q0 10 10 10h29q6 0 6 6v63q0 63 28.5 97.5t96.5 34.5h18q10 0 10 -10v-53
q0 -10 -10 -10h-23q-23 0 -33 -10t-10 -35v-77q0 -6 6 -6h60q10 0 10 -10v-41q0 -10 -10 -10h-60q-6 0 -6 -6v-402q0 -10 -10 -10h-57zM327 0q-10 0 -10 10v402q0 6 -6 6h-29q-10 0 -10 10v41q0 10 10 10h29q6 0 6 6v63q0 63 28.5 97.5t96.5 34.5h18q10 0 10 -10v-53
q0 -10 -10 -10h-23q-23 0 -33 -10t-10 -35v-77q0 -6 6 -6h60q10 0 10 -10v-41q0 -10 -10 -10h-60q-6 0 -6 -6v-402q0 -10 -10 -10h-57z" />
      <glyph d="M0 670q0 10 10 10h356q10 0 10 -10v-660q0 -10 -10 -10h-356q-10 0 -10 10v660zM48 52q0 -6 6 -6h267q6 0 6 6v576q0 6 -6 6h-267q-6 0 -6 -6v-576zM171 222q-10 0 -10 10v47q0 12 3 22.5t9 22.5l35 67q10 19 14.5 32t4.5 35q0 21 -4 32q-8 24 -36 24q-29 0 -36 -24
q-2 -6 -3 -14.5t-1 -29.5q0 -11 -11 -9l-32 4q-9 1 -9 11q0 23 2 34.5t4 18.5q8 26 31 42t56 16q32 0 55 -16t31 -42q2 -7 4 -17.5t2 -27.5q0 -26 -5 -42.5t-16 -37.5l-35 -67q-5 -10 -7.5 -18t-2.5 -19v-44q0 -10 -10 -10h-33zM159 173q0 10 10 10h38q10 0 10 -10v-49
q0 -10 -10 -10h-38q-10 0 -10 10v49z" />
      <glyph />
      <glyph d="M97 170q-10 0 -10 10l-16 490q0 10 10 10h65q10 0 10 -10l-16 -490q0 -10 -10 -10h-33zM71 94q0 10 10 10h65q10 0 10 -10v-84q0 -10 -10 -10h-65q-10 0 -10 10v84z" />
      <glyph d="M163 506q-10 0 -10 10v154q0 10 10 10h40q10 0 10 -10v-154q0 -10 -10 -10h-40zM51 506q-10 0 -10 10v154q0 10 10 10h39q10 0 10 -10v-154q0 -10 -10 -10h-39z" />
      <glyph d="M123 223h-53q-10 0 -10 10v38q0 10 10 10h59l15 141h-56q-10 0 -10 10v37q0 10 10 10h62l20 191q2 10 11 10h39q11 0 9 -10l-20 -191h115l20 191q2 10 11 10h39q11 0 9 -10l-20 -191h59q10 0 10 -10v-37q0 -10 -10 -10h-65l-15 -141h61q10 0 10 -10v-38q0 -10 -10 -10
h-67l-22 -213q-2 -10 -11 -10h-39q-11 0 -9 10l22 213h-115l-22 -213q-2 -10 -11 -10h-39q-11 0 -9 10zM303 281l15 141h-115l-15 -141h115z" />
      <glyph d="M42 162q0 10 8 11l52 9q11 1 11 -9q2 -56 17 -79.5t46 -28.5v254l-19 8q-32 12 -52.5 27.5t-33 37.5t-17.5 51t-5 68q0 83 30.5 127.5t96.5 49.5v41q0 10 10 10h15q10 0 10 -10v-41q63 -6 91 -45.5t33 -111.5q1 -9 -8 -11l-51 -8q-9 -2 -11 8q-3 45 -15 67t-39 27v-223
l19 -7q31 -12 52 -27.5t34 -38t18.5 -53.5t5.5 -74q0 -101 -31.5 -147.5t-97.5 -51.5v-59q0 -10 -10 -10h-15q-10 0 -10 10v59q-69 5 -100 47t-34 123zM176 614q-29 -5 -41 -28t-12 -71q0 -47 10.5 -71t42.5 -39v209zM211 65q28 4 41.5 29t13.5 88q0 54 -12 81t-43 42v-240z
" />
      <glyph d="M418 679q4 10 13 10h38q10 0 7 -10l-245 -678q-4 -10 -13 -10h-39q-10 0 -7 10zM154 329q-35 0 -56.5 15.5t-30.5 42.5q-2 7 -3.5 14.5t-2.5 20t-1 33v53.5v53t1 32.5t2.5 20t3.5 14.5q9 27 30.5 42.5t56.5 15.5q34 0 56 -15.5t30 -42.5q2 -7 3.5 -14.5t2 -20t1 -32.5
t0.5 -53t-0.5 -53.5t-1 -33t-2 -20t-3.5 -14.5q-8 -27 -30 -42.5t-56 -15.5zM154 381q26 0 32 22q1 3 2 7.5t1.5 15t0.5 30v52.5v51.5t-0.5 30t-1.5 15t-2 7.5q-6 22 -32 22q-25 0 -33 -22q-1 -3 -1.5 -7.5t-1 -15t-1 -30t-0.5 -51.5q0 -33 0.5 -52.5t1 -30t1 -15t1.5 -7.5
q8 -22 33 -22zM408 52q-2 7 -3.5 14.5t-2.5 20t-1 32.5v53v53.5t1 33t2.5 20t3.5 14.5q9 27 31 42.5t56 15.5t56 -15.5t30 -42.5q3 -7 4.5 -14.5t2 -20t1 -33t0.5 -53.5t-0.5 -53t-1 -32.5t-2 -20t-4.5 -14.5q-8 -27 -30 -42.5t-56 -15.5t-56 15.5t-31 42.5zM462 68
q8 -22 33 -22q26 0 32 22q1 3 2 7.5t1.5 15t0.5 30v51.5v52.5t-0.5 30t-1.5 15t-2 7.5q-6 22 -32 22q-25 0 -33 -22q-1 -3 -1.5 -7.5t-1 -15t-1 -30t-0.5 -52.5q0 -32 0.5 -51.5t1 -30t1 -15t1.5 -7.5z" />
      <glyph d="M66 139q0 50 30.5 102t93.5 126l-14 24q-31 53 -46.5 91t-15.5 73q0 62 37 98t95 36t95.5 -36t37.5 -98q0 -20 -5 -40t-17 -43t-31.5 -50.5t-49.5 -61.5l87 -151l46 80q5 9 13 4l39 -22q8 -5 3 -14l-63 -113l28 -48q9 -17 15.5 -21.5t15.5 -4.5h4q10 0 10 -10v-50
q0 -10 -10 -10h-22q-24 0 -36.5 8t-25.5 31l-21 36q-31 -43 -66.5 -63.5t-82.5 -20.5q-69 0 -106.5 40.5t-37.5 107.5zM239 424q21 24 34 42.5t21 33.5t11 28.5t3 28.5q0 33 -16.5 51t-44.5 18t-44.5 -18t-16.5 -51q0 -9 2 -20t8 -26.5t16 -36.5t27 -50zM138 141
q0 -39 20.5 -60t55.5 -21q29 0 54 16.5t54 61.5l-95 165q-47 -55 -68 -91t-21 -71z" />
      <glyph d="M51 506q-10 0 -10 10v154q0 10 10 10h39q10 0 10 -10v-154q0 -10 -10 -10h-39z" />
      <glyph d="M157 -74q-43 91 -66 195t-23 207t23 207t66 195q3 10 13 10h34q10 0 7 -10q-32 -94 -48.5 -198t-16.5 -204t16.5 -204t48.5 -198q3 -10 -7 -10h-34q-10 0 -13 10z" />
      <glyph d="M44 -74q32 94 49 198t17 204t-17 204t-49 198q-3 10 7 10h35q8 0 13 -10q43 -91 65.5 -195t22.5 -207t-22.5 -207t-65.5 -195q-5 -10 -13 -10h-35q-10 0 -7 10z" />
      <glyph d="M149 396q-10 0 -10 10v91l-65 -39q-8 -5 -13 3l-14 26q-5 9 3 14l65 37l-65 37q-8 5 -3 14l14 26q5 8 13 3l65 -39v91q0 10 10 10h28q10 0 10 -10l-1 -91l66 39q8 5 13 -3l15 -26q5 -9 -3 -14l-67 -37l67 -37q8 -5 3 -14l-15 -26q-5 -8 -13 -3l-66 39l1 -91
q0 -10 -10 -10h-28z" />
      <glyph d="M157 235q0 6 -6 6h-103q-10 0 -10 10v50q0 10 10 10h103q6 0 6 6v105q0 10 10 10h52q10 0 10 -10v-105q0 -6 6 -6h103q10 0 10 -10v-50q0 -10 -10 -10h-103q-6 0 -6 -6v-105q0 -10 -10 -10h-52q-10 0 -10 10v105z" />
      <glyph d="M50 94q0 10 10 10h59q10 0 10 -10v-75q0 -16 -6 -26l-54 -88q-4 -7 -11 -7q-8 0 -8 9v187z" />
      <glyph d="M51 230q-10 0 -10 10v52q0 10 10 10h232q10 0 10 -10v-52q0 -10 -10 -10h-232z" />
      <glyph d="M50 94q0 10 10 10h65q10 0 10 -10v-84q0 -10 -10 -10h-65q-10 0 -10 10v84z" />
      <glyph d="M149 679q2 10 11 10h41q11 0 9 -10l-125 -678q-1 -10 -11 -10h-40q-11 0 -9 10z" />
      <glyph d="M61 80q-3 8 -5 20t-3.5 38.5t-2 74t-0.5 127.5t0.5 127.5t2 74t3.5 38.5t5 20q14 45 48 67t84 22t84 -22t48 -67q3 -8 4.5 -20t3 -38.5t2 -74t0.5 -127.5t-0.5 -127.5t-2 -74t-3 -38.5t-4.5 -20q-14 -45 -48 -67t-84 -22t-84 22t-48 67zM134 104q14 -40 59 -40
q46 0 58 40q2 5 3.5 14t2 33t1 68.5t0.5 120.5t-0.5 120.5t-1 68.5t-2 33t-3.5 14q-12 40 -58 40q-45 0 -59 -40q-2 -5 -3 -14t-1.5 -33t-1 -68.5t-0.5 -120.5t0.5 -120.5t1 -68.5t1.5 -33t3 -14z" />
      <glyph d="M178 587h-1l-86 -65q-4 -3 -7.5 -1.5t-3.5 8.5v62q0 8 9 16l87 67q9 6 17 6h53q10 0 10 -10v-660q0 -10 -10 -10h-58q-10 0 -10 10v577z" />
      <glyph d="M52 61q0 9 5 18l170 320q15 28 22 54.5t7 67.5q0 25 -1 36t-4 19q-14 40 -60 40q-45 0 -59 -40q-3 -8 -4 -21t-1 -49q0 -12 -12 -10l-54 6q-9 1 -9 12q0 35 1.5 53t6.5 32q14 43 47 66.5t85 23.5q53 0 85.5 -23t46.5 -66q5 -14 7 -32t2 -47q0 -27 -2.5 -48.5t-8 -40
t-13 -36t-17.5 -36.5l-156 -287v-1h187q10 0 10 -10v-52q0 -10 -10 -10h-261q-10 0 -10 10v51z" />
      <glyph d="M59 81q-5 14 -7 32t-2 48q0 11 10 12l54 5q12 2 12 -9q0 -32 1 -44.5t4 -20.5q14 -40 59 -40q46 0 59 40q1 4 2 9t2 14.5t1 24.5v39v40.5t-1 25t-2 14t-2 8.5q-13 39 -63 39h-16q-10 0 -10 10v51q0 10 10 10h16q50 0 63 38q1 4 2 8.5t2 13t1 21.5v34q0 37 -1 50.5
t-4 21.5q-13 40 -59 40q-45 0 -59 -40q-3 -8 -4 -20.5t-1 -44.5q0 -11 -12 -9l-54 5q-10 1 -10 12q0 31 2 48.5t7 31.5q14 43 47 66.5t85 23.5q53 0 85.5 -23t46.5 -66q4 -14 6 -34.5t2 -61.5q0 -21 -0.5 -35t-1 -23.5t-2 -16.5t-3.5 -13q-7 -20 -19 -34t-32 -25v-2
q38 -22 51 -60q2 -6 3.5 -13t2 -18.5t1 -28.5t0.5 -44q0 -26 -0.5 -44t-1.5 -30.5t-2.5 -21t-3.5 -15.5q-14 -43 -47 -66t-85 -23t-85 23.5t-47 66.5z" />
      <glyph d="M37 112q-10 0 -10 10v51q0 6 2 12l140 487q3 8 12 8h58q10 0 7 -11l-139 -483v-2h110q6 0 6 6v190q0 10 10 10h57q10 0 10 -10v-190q0 -6 5 -6h46q10 0 10 -10v-52q0 -10 -10 -10h-45q-6 0 -6 -6v-96q0 -10 -10 -10h-57q-10 0 -10 10v96q0 6 -6 6h-180z" />
      <glyph d="M62 81q-5 14 -6.5 31t-1.5 41q0 10 9 12l54 5q12 2 12 -9q0 -26 1 -37.5t4 -19.5q14 -40 59 -40q46 0 58 39q1 4 2.5 9.5t2 17.5t1 32.5t0.5 53.5t-0.5 53.5t-1 32t-2 17t-2.5 9.5q-12 40 -58 40q-23 0 -36 -9.5t-21 -24.5q-5 -9 -15 -9h-49q-10 0 -10 10v335q0 10 10 10
h253q10 0 10 -10v-52q0 -10 -10 -10h-186q-6 0 -6 -6v-193h1q12 14 32 22.5t45 8.5q45 0 72.5 -20t40.5 -58q3 -8 4.5 -17t3 -25t2 -40.5t0.5 -63.5q0 -36 -0.5 -59t-2 -37.5t-3.5 -23.5t-4 -16q-14 -43 -46 -66t-84 -23t-85 23.5t-47 66.5z" />
      <glyph d="M60 82q-2 7 -3.5 15t-2.5 20.5t-1.5 31t-0.5 46.5q0 37 1.5 63t5 47t10 40.5t15.5 43.5l109 282q3 9 12 9h60q11 0 6 -11l-107 -279l1 -2q12 10 43 10q48 0 75.5 -22.5t41.5 -64.5q2 -7 4 -16t3 -22t1.5 -32t0.5 -46q0 -28 -0.5 -46.5t-1.5 -31t-2.5 -20.5t-3.5 -15
q-14 -43 -47.5 -67t-85.5 -24t-85.5 24t-47.5 67zM134 104q14 -40 59 -40t59 40q1 4 2 9t2 14.5t1 25.5v42v41t-1 25.5t-2 14.5t-2 9q-14 41 -59 41t-59 -41q-2 -4 -2.5 -9t-1.5 -14.5t-1 -25.5v-41v-42t1 -25.5t1.5 -14.5t2.5 -9z" />
      <glyph d="M262 606v2h-134q-6 0 -6 -6v-75q0 -10 -10 -10h-52q-10 0 -10 10v143q0 10 10 10h270q10 0 10 -10v-53q0 -5 -2 -13l-174 -594q-3 -10 -13 -10h-59q-9 0 -6 12z" />
      <glyph d="M61 82q-2 7 -4 15t-3 20t-1.5 30t-0.5 45q0 24 0.5 39.5t1.5 27t2.5 19t4.5 15.5q7 21 19 36.5t28 25.5v2q-33 21 -47 62q-5 15 -7 32.5t-2 52.5q0 42 2 61t7 33q14 43 47 67t85 24t85.5 -24t47.5 -67q5 -14 6.5 -33t1.5 -61q0 -35 -1.5 -52.5t-6.5 -32.5
q-14 -41 -47 -62v-2q16 -10 28 -25.5t19 -36.5q3 -8 4.5 -15.5t2 -19t1 -27t0.5 -39.5q0 -27 -0.5 -45t-1.5 -30t-2.5 -20t-3.5 -15q-14 -43 -47.5 -67t-85.5 -24t-85 24t-47 67zM193 392q45 0 59 41q1 4 2 9t2 12.5t1 19.5v30q0 37 -1 50.5t-4 21.5q-14 40 -59 40t-59 -40
q-3 -8 -4 -21.5t-1 -50.5v-30t1 -19.5t1.5 -12.5t2.5 -9q14 -41 59 -41zM134 104q14 -40 59 -40t59 40q1 4 2 9t2 14t1 24.5v40.5v40t-1 24t-2 14t-2 9q-14 41 -59 41t-59 -41q-2 -4 -2.5 -9t-1.5 -14t-1 -24v-40v-40.5t1 -24.5t1.5 -14t2.5 -9z" />
      <glyph d="M222 290l-1 2q-12 -10 -43 -10q-48 0 -75.5 22.5t-41.5 64.5q-2 7 -4 16t-3 22t-1.5 32t-0.5 46q0 28 0.5 46.5t1.5 31t2.5 20.5t3.5 15q14 43 47.5 67t85.5 24t85.5 -24t47.5 -67q2 -7 3.5 -15t2.5 -20.5t1.5 -31t0.5 -46.5q0 -37 -1.5 -63t-5 -47t-10 -40.5
t-15.5 -43.5l-109 -282q-3 -9 -12 -9h-60q-11 0 -6 11zM193 354q45 0 59 41q1 4 2 9t2 14.5t1 25v41.5v42t-1 25.5t-2 14.5t-2 9q-14 40 -59 40t-59 -40q-2 -4 -2.5 -9t-1.5 -14.5t-1 -25.5v-42v-41.5t1 -25t1.5 -14.5t2.5 -9q14 -41 59 -41z" />
      <glyph d="M66 376q-10 0 -10 10v83q0 10 10 10h66q10 0 10 -10v-83q0 -10 -10 -10h-66zM56 94q0 10 10 10h66q10 0 10 -10v-84q0 -10 -10 -10h-66q-10 0 -10 10v84z" />
      <glyph d="M66 376q-10 0 -10 10v83q0 10 10 10h66q10 0 10 -10v-83q0 -10 -10 -10h-66zM59 94q0 10 10 10h60q10 0 10 -10v-73q0 -9 -1.5 -14.5t-5.5 -12.5l-54 -88q-4 -7 -11 -7q-8 0 -8 9v186z" />
      <glyph d="M48 240q-10 5 -10 15v42q0 10 10 15l290 118q10 3 10 -6v-55q0 -9 -10 -13l-202 -79v-2l202 -79q10 -4 10 -13v-55q0 -9 -10 -6z" />
      <glyph d="M48 329q-10 0 -10 10v49q0 10 10 10h290q10 0 10 -10v-49q0 -10 -10 -10h-290zM48 154q-10 0 -10 10v49q0 10 10 10h290q10 0 10 -10v-49q0 -10 -10 -10h-290z" />
      <glyph d="M48 122q-10 -4 -10 6v55q0 9 10 13l203 79v2l-203 79q-10 4 -10 13v55q0 10 10 6l290 -118q10 -4 10 -15v-42q0 -11 -10 -15z" />
      <glyph d="M142 170q-10 0 -10 10v73q0 19 4 35t14 34l55 103q14 26 20 48.5t6 57.5q0 31 -5 45q-13 40 -57 40t-57 -40q-3 -8 -4.5 -21.5t-1.5 -48.5q0 -12 -11 -10l-55 6q-9 1 -9 12q0 38 2 55t7 31q14 42 48 65.5t82 23.5q51 0 83.5 -24t46.5 -65q4 -13 6.5 -29.5t2.5 -39.5
q0 -38 -7 -64t-23 -57l-55 -105q-8 -14 -11.5 -26.5t-3.5 -28.5v-70q0 -10 -10 -10h-57zM128 94q0 10 10 10h65q10 0 10 -10v-84q0 -10 -10 -10h-65q-10 0 -10 10v84z" />
      <glyph d="M59 70q-5 14 -8 29.5t-5.5 37.5t-3.5 53.5t-1 77.5t1 77.5t3.5 54t5.5 38t8 29.5q30 92 103.5 142.5t173.5 50.5q101 0 174.5 -50.5t103.5 -142.5q4 -14 7.5 -29.5t6 -38t3.5 -54t1 -77.5q0 -34 -0.5 -56t-1.5 -36t-3 -23t-4 -16q-14 -42 -42.5 -60t-66.5 -18
q-35 0 -62 15.5t-40 47.5h-1q-13 -33 -34 -48t-59 -15q-73 0 -94 66q-2 7 -4 16t-3 24t-1.5 38.5t-0.5 59.5t0.5 59.5t1.5 38.5t3 24t4 16q21 66 92 66q28 0 46 -11.5t28 -30.5h2v25q0 10 10 10h46q10 0 10 -10v-265q0 -35 15.5 -51.5t40.5 -16.5q39 0 52 36q1 4 2 9.5t2 17
t1 32.5v56q0 46 -1 76.5t-3 50.5t-4.5 33t-6.5 24q-23 72 -81 111t-139 39t-138.5 -39t-80.5 -111q-4 -11 -6.5 -24t-4.5 -33t-3 -50.5t-1 -76.5t1 -76t3 -50.5t5 -33t6 -23.5q24 -72 81 -111.5t138 -39.5q49 0 86 11t69 33q8 6 14 -2l20 -29q5 -9 -3 -14
q-39 -27 -84.5 -41.5t-101.5 -14.5q-100 0 -173.5 50.5t-103.5 142.5zM285 156q12 -35 51 -35q40 0 52 35q1 4 2 10t2 17t1 30v50v50t-1 30t-2 16.5t-2 10.5q-12 35 -52 35q-39 0 -51 -35q-2 -5 -2.5 -10.5l-1.5 -16.5t-1 -30v-50v-50t1 -30t1.5 -17t2.5 -10z" />
      <glyph d="M163 670q3 10 11 10h60q9 0 11 -10l143 -660q2 -10 -9 -10h-60q-9 0 -11 10l-30 149h-151l-30 -149q-2 -10 -10 -10h-60q-11 0 -9 10zM264 229l-58 296h-3l-62 -296h123z" />
      <glyph d="M60 670q0 10 10 10h129q88 0 128.5 -41t40.5 -134q0 -64 -20.5 -98t-58.5 -51v-2q38 -12 62 -49t24 -110q0 -55 -11 -92t-34 -60t-58 -33t-83 -10h-119q-10 0 -10 10v660zM195 386q48 0 69.5 22.5t21.5 86.5q0 33 -5 54t-16 33.5t-28.5 17.5t-43.5 5h-46q-6 0 -6 -6v-207
q0 -6 6 -6h48zM141 81q0 -6 6 -6h45q28 0 47 5.5t31 19.5t17.5 37.5t5.5 58.5q0 68 -23 93.5t-75 25.5h-48q-6 0 -6 -6v-228z" />
      <glyph d="M61 91q-3 10 -5.5 23.5t-4 39.5t-2 70t-0.5 116t0.5 116t2 70t4 39t5.5 24q16 48 52 74t94 26q67 0 106 -37t46 -115q1 -10 -8 -12l-57 -11q-11 -2 -11 8q-7 91 -75 91q-53 0 -68 -47q-2 -7 -4 -17t-3 -33t-1.5 -64.5t-0.5 -111.5q0 -71 0.5 -112t1.5 -64t3 -33t4 -17
q15 -47 68 -47q68 0 75 91q0 10 11 8l57 -11q9 -2 8 -12q-7 -78 -46 -115t-106 -37q-58 0 -94 26t-52 74z" />
      <glyph d="M60 670q0 10 10 10h141q65 0 102.5 -26.5t54.5 -79.5q4 -14 7.5 -31t5 -43t2.5 -64.5t1 -95.5t-1 -95.5t-2.5 -64.5t-5 -43t-7.5 -31q-17 -53 -54.5 -79.5t-102.5 -26.5h-141q-10 0 -10 10v660zM141 81q0 -6 6 -6h56q35 0 55 14t31 44q3 10 5.5 24t4 37t2.5 58t1 88
t-1 88t-2.5 58t-4 36.5t-5.5 24.5q-11 30 -31 44t-55 14h-56q-6 0 -6 -6v-518z" />
      <glyph d="M60 670q0 10 10 10h257q10 0 10 -10v-55q0 -10 -10 -10h-180q-6 0 -6 -6v-212q0 -6 6 -6h156q10 0 10 -10v-55q0 -10 -10 -10h-156q-6 0 -6 -6v-219q0 -6 6 -6h180q10 0 10 -10v-55q0 -10 -10 -10h-257q-10 0 -10 10v660z" />
      <glyph d="M60 670q0 10 10 10h257q10 0 10 -10v-55q0 -10 -10 -10h-180q-6 0 -6 -6v-216q0 -6 6 -6h156q10 0 10 -10v-55q0 -10 -10 -10h-156q-6 0 -6 -6v-286q0 -10 -10 -10h-61q-10 0 -10 10v660z" />
      <glyph d="M62 92q-4 11 -6.5 24t-4 38.5t-2 69.5t-0.5 116t0.5 116t2 69.5t4 38.5t6.5 24q16 49 53.5 75t95.5 26q71 0 110.5 -38t47.5 -110q2 -11 -7 -12l-56 -11q-10 -1 -12 8q-5 42 -25 64.5t-57 22.5q-27 0 -45.5 -12.5t-26.5 -35.5q-3 -8 -4.5 -17t-2.5 -31.5t-1.5 -64
t-0.5 -112.5t0.5 -112.5t1.5 -64t2.5 -32t4.5 -16.5q8 -23 27 -35.5t46 -12.5t46 12.5t27 35.5q2 7 4 15.5t3 26.5t1.5 49t0.5 83q0 6 -6 6h-67q-10 0 -10 10v53q0 10 10 10h141q10 0 10 -10v-29q0 -68 -0.5 -109.5t-2 -66t-4 -37.5t-6.5 -24q-15 -49 -53 -75t-96 -26
t-95.5 26t-53.5 75z" />
      <glyph d="M60 670q0 10 10 10h61q10 0 10 -10v-278q0 -6 6 -6h146q6 0 6 6v278q0 10 10 10h61q10 0 10 -10v-660q0 -10 -10 -10h-61q-10 0 -10 10v295q0 6 -6 6h-146q-6 0 -6 -6v-295q0 -10 -10 -10h-61q-10 0 -10 10v660z" />
      <glyph d="M60 670q0 10 10 10h61q10 0 10 -10v-660q0 -10 -10 -10h-61q-10 0 -10 10v660z" />
      <glyph d="M25 32q-6 8 1 14l40 39q7 7 16 0q21 -18 47 -18q35 0 54 20t19 68v515q0 10 10 10h61q10 0 10 -10v-509q0 -88 -42.5 -129t-112.5 -41q-32 0 -59 10.5t-44 30.5z" />
      <glyph d="M60 670q0 10 10 10h61q10 0 10 -10v-312l155 314q4 8 13 8h65q5 0 6.5 -3t-0.5 -6l-135 -263l156 -398q3 -10 -6 -10h-66q-8 0 -11 7l-122 316l-55 -112v-201q0 -10 -10 -10h-61q-10 0 -10 10v660z" />
      <glyph d="M60 670q0 10 10 10h61q10 0 10 -10v-589q0 -6 6 -6h178q10 0 10 -10v-55q0 -10 -10 -10h-255q-10 0 -10 10v660z" />
      <glyph d="M60 670q0 10 10 10h62q11 0 14 -10l124 -416h4l121 416q3 10 15 10h61q10 0 10 -10v-660q0 -10 -10 -10h-54q-10 0 -10 10v471h-5l-103 -350q-3 -10 -12 -10h-33q-9 0 -12 10l-103 350h-5v-471q0 -10 -10 -10h-54q-10 0 -10 10v660z" />
      <glyph d="M60 670q0 10 10 10h75q12 0 15 -10l152 -510h4v510q0 10 10 10h53q10 0 10 -10v-660q0 -10 -10 -10h-71q-12 0 -15 10l-155 510h-5v-510q0 -10 -10 -10h-53q-10 0 -10 10v660z" />
      <glyph d="M211 -9q-58 0 -95.5 26t-53.5 75q-4 11 -6.5 24t-4 38.5t-2 69.5t-0.5 116t0.5 116t2 69.5t4 38.5t6.5 24q16 49 53.5 75t95.5 26t96 -26t53 -75q4 -11 6.5 -24t4 -38.5t2 -69.5t0.5 -116t-0.5 -116t-2 -69.5t-4 -38.5t-6.5 -24q-15 -49 -53 -75t-96 -26zM211 67
q27 0 45.5 12.5t26.5 35.5q2 7 3.5 16.5t2.5 32t1.5 64t0.5 112.5t-0.5 112.5t-1.5 64t-2.5 31.5t-3.5 17q-8 23 -26.5 35.5t-45.5 12.5q-56 0 -71 -48q-3 -8 -4.5 -17t-2.5 -31.5t-1.5 -64t-0.5 -112.5t0.5 -112.5t1.5 -64t2.5 -32t4.5 -16.5q15 -48 71 -48z" />
      <glyph d="M70 0q-10 0 -10 10v660q0 10 10 10h119q45 0 79.5 -11t57.5 -35t35 -63t12 -95q0 -110 -47.5 -157t-136.5 -47h-42q-6 0 -6 -6v-256q0 -10 -10 -10h-61zM189 347q56 0 79.5 28t23.5 101q0 72 -23.5 100.5t-79.5 28.5h-42q-6 0 -6 -6v-246q0 -6 6 -6h42z" />
      <glyph d="M375 -14q-7 -8 -14 -1l-46 41q-41 -35 -104 -35q-58 0 -95.5 26t-53.5 75q-4 11 -6.5 24t-4 38.5t-2 69.5t-0.5 116t0.5 116t2 69.5t4 38.5t6.5 24q16 49 53.5 75t95.5 26t96 -26t53 -75q4 -11 6.5 -24t4 -38.5t2 -69.5t0.5 -116q0 -77 -1 -122t-3.5 -71t-6.5 -39t-9 -27
l52 -43q8 -6 2 -14zM211 66q18 0 29.5 3t20.5 8l-53 46q-7 7 -1 15l27 32q6 7 14 1l40 -37q1 9 2 25t1.5 40.5t0.5 59v81.5q0 71 -0.5 112.5t-1.5 64t-2.5 31.5t-4.5 17q-8 23 -26.5 35.5t-45.5 12.5t-45.5 -12.5t-26.5 -35.5q-3 -8 -4.5 -17t-2.5 -31.5t-1.5 -64
t-0.5 -112.5t0.5 -112.5t1.5 -64t2.5 -32t4.5 -17.5q8 -23 26.5 -35.5t45.5 -12.5z" />
      <glyph d="M312 0q-8 0 -11 7l-85 284q-7 -1 -14 -1h-14h-41q-6 0 -6 -6v-274q0 -10 -10 -10h-61q-10 0 -10 10v660q0 10 10 10h119q90 0 137 -44t47 -152q0 -69 -21.5 -111t-61.5 -62l95 -301q4 -10 -5 -10h-68zM190 363q53 0 77.5 25.5t24.5 95.5q0 69 -24 95t-78 26h-43
q-6 0 -6 -6v-230q0 -6 6 -6h43z" />
      <glyph d="M354 192q0 -103 -36 -152t-122 -49q-153 0 -160 175q0 10 8 11l59 11q11 2 11 -9q3 -63 23.5 -88.5t59.5 -25.5t57.5 24t18.5 93q0 29 -3 50t-11 35.5t-21.5 24.5t-33.5 18l-41 16q-35 13 -58 29.5t-36.5 38t-19 51t-5.5 68.5q0 176 152 176q77 0 113.5 -41t40.5 -121
q0 -10 -9 -11l-56 -9q-5 -2 -8 0.5t-3 7.5q-2 51 -19.5 75.5t-56.5 24.5q-38 0 -56 -23.5t-18 -75.5q0 -26 3.5 -44.5t11.5 -31.5t21.5 -22t34.5 -17l41 -16q33 -13 55.5 -29t36.5 -38.5t20 -53t6 -72.5z" />
      <glyph d="M154 0q-10 0 -10 10v589q0 6 -6 6h-112q-10 0 -10 10v55q0 10 10 10h317q10 0 10 -10v-55q0 -10 -10 -10h-112q-6 0 -6 -6v-589q0 -10 -10 -10h-61z" />
      <glyph d="M218 -9q-73 0 -116 44t-43 132v503q0 10 10 10h61q10 0 10 -10v-513q0 -45 21 -67.5t57 -22.5t57 22.5t21 67.5v513q0 10 10 10h61q10 0 10 -10v-503q0 -88 -43 -132t-116 -44z" />
      <glyph d="M167 0q-8 0 -10 10l-135 660q-2 10 8 10h62q9 0 10 -10l93 -500h3l90 500q1 10 11 10h60q10 0 8 -10l-135 -660q-2 -10 -10 -10h-55z" />
      <glyph d="M379 0q-8 0 -10 10l-79 484h-2l-82 -484q-2 -10 -10 -10h-53q-8 0 -10 10l-108 660q-2 10 8 10h61q10 0 11 -10l66 -488h2l83 488q1 10 10 10h44q9 0 10 -10l83 -488h2l68 488q1 10 11 10h59q10 0 8 -10l-108 -660q-2 -10 -10 -10h-54z" />
      <glyph d="M300 0q-9 0 -12 10l-91 243h-1l-92 -243q-3 -10 -11 -10h-64q-10 0 -7 10l133 344l-121 316q-3 10 7 10h62q9 0 12 -10l81 -219h1l80 219q3 10 12 10h63q10 0 7 -10l-122 -316l133 -344q3 -10 -7 -10h-63z" />
      <glyph d="M157 0q-10 0 -10 10v271l-131 389q-3 10 7 10h63q9 0 12 -10l89 -285h3l89 285q3 10 11 10h62q10 0 7 -10l-131 -389v-271q0 -10 -10 -10h-61z" />
      <glyph d="M45 0q-10 0 -10 10v52q0 6 2 12l206 529v2h-188q-10 0 -10 10v55q0 10 10 10h263q10 0 10 -10v-53q0 -6 -2 -12l-206 -528v-2h198q10 0 10 -10v-55q0 -10 -10 -10h-273z" />
      <glyph d="M78 -84q-10 0 -10 10v804q0 10 10 10h115q10 0 10 -10v-45q0 -10 -10 -10h-47q-6 0 -6 -6v-682q0 -6 6 -6h47q10 0 10 -10v-45q0 -10 -10 -10h-115z" />
      <glyph d="M160 -9q-10 0 -11 10l-124 678q-2 10 9 10h40q9 0 11 -10l125 -678q2 -10 -9 -10h-41z" />
      <glyph d="M50 -84q-10 0 -10 10v45q0 10 10 10h48q6 0 6 6v682q0 6 -6 6h-48q-10 0 -10 10v45q0 10 10 10h115q10 0 10 -10v-804q0 -10 -10 -10h-115z" />
      <glyph d="M292 272q-9 0 -13 10l-84 287h-2l-85 -287q-3 -10 -13 -10h-52q-10 0 -7 10l122 388q3 10 14 10h43q11 0 14 -10l122 -388q3 -10 -7 -10h-52z" />
      <glyph d="M0 -124v48h389v-48h-389z" />
      <glyph d="M224 557q-10 0 -17 10l-87 123q-2 4 -1 7t6 3h59q10 0 16 -10l69 -123q5 -10 -5 -10h-40z" />
      <glyph d="M254 0q-10 0 -10 10v41h-1q-10 -28 -34 -44t-56 -16q-21 0 -41.5 7t-36.5 23.5t-25.5 44t-9.5 67.5t11 68.5t29.5 46t44.5 25.5t56 8h57q6 0 6 6v39q0 48 -16 69.5t-55 21.5q-26 0 -45 -9t-36 -23q-11 -7 -16 4l-19 39q-5 9 2 16q21 20 53 32t70 12q72 0 104 -36t32 -122
v-320q0 -10 -10 -10h-54zM174 57q31 0 50.5 24t19.5 63v66q0 6 -6 6h-45q-43 0 -61 -20.5t-18 -60.5q0 -39 15.5 -58.5t44.5 -19.5z" />
      <glyph d="M227 -9q-39 0 -60 17t-31 41h-1v-39q0 -10 -10 -10h-57q-10 0 -10 10v660q0 10 10 10h57q10 0 10 -10v-240h1q10 25 31 41.5t60 16.5q79 0 104 -78q3 -10 5.5 -21.5t4 -29.5t2 -46.5t0.5 -72.5t-0.5 -72.5t-2 -47t-4 -30t-5.5 -21.5q-25 -78 -104 -78zM201 63q44 0 58 42
q2 6 3.5 13.5t2 21t1 37.5t0.5 63t-0.5 62.5t-1 37t-2 21t-3.5 13.5q-14 42 -58 42q-23 0 -37.5 -11t-21.5 -31q-2 -6 -3.5 -13.5t-2 -21t-1 -37t-0.5 -62.5t0.5 -63t1 -37.5t2 -21t3.5 -13.5q7 -20 21.5 -31t37.5 -11z" />
      <glyph d="M184 -9q-99 0 -128 89q-3 10 -5.5 20.5t-3.5 27t-1.5 43t-0.5 69.5t0.5 69.5t1.5 43t3.5 26t5.5 20.5q29 89 128 89q57 0 93 -33t41 -90q0 -9 -7 -11l-54 -10q-10 -3 -12 8q-5 34 -20.5 49t-40.5 15q-43 0 -56 -39q-2 -7 -3.5 -14t-2 -21t-0.5 -38v-64v-65t0.5 -38t2 -21
t3.5 -14q13 -39 56 -39q25 0 40.5 15t20.5 49q2 11 12 8l54 -10q7 -2 7 -11q-5 -57 -41 -90t-93 -33z" />
      <glyph d="M264 0q-10 0 -10 10v39h-1q-10 -24 -31 -41t-60 -17q-79 0 -104 78q-3 10 -5.5 21.5t-4 30t-2 47t-0.5 72.5t0.5 72.5t2 46.5t4 29.5t5.5 21.5q25 78 104 78q39 0 60 -16.5t31 -41.5h1v240q0 10 10 10h57q10 0 10 -10v-660q0 -10 -10 -10h-57zM189 63q22 0 36.5 11
t21.5 31q2 6 3.5 13.5t2 21t1 37.5t0.5 63t-0.5 62.5t-1 37t-2 21t-3.5 13.5q-7 20 -21.5 31t-36.5 11q-45 0 -59 -42q-2 -6 -3.5 -13.5t-2 -21t-1 -37t-0.5 -62.5t0.5 -63t1 -37.5t2 -21t3.5 -13.5q14 -42 59 -42z" />
      <glyph d="M184 -9q-50 0 -82 23t-46 67q-3 8 -5 18t-3.5 27.5t-2 44.5t-0.5 69t0.5 68.5t2 44t3.5 27.5t5 19q14 43 46.5 66t83.5 23t83 -23t46 -66q3 -8 5 -18.5t3.5 -29.5t2 -48.5t0.5 -76.5q0 -10 -10 -10h-188q-6 0 -6 -6q0 -29 0.5 -47.5t1.5 -29.5t2 -17.5t3 -11.5
q15 -41 56 -41q49 0 64 54q3 10 12 8l53 -11q9 -1 7 -12q-10 -52 -46 -81.5t-91 -29.5zM243 281q6 0 6 6q0 23 -0.5 38.5t-1.5 25.5t-2.5 16t-2.5 11q-13 40 -56 40q-44 0 -57 -40q-2 -5 -3 -11t-2 -16t-1.5 -25.5t-0.5 -38.5q0 -6 6 -6h115z" />
      <glyph d="M84 0q-10 0 -10 10v402q0 6 -6 6h-29q-10 0 -10 10v41q0 10 10 10h29q6 0 6 6v63q0 63 28.5 97.5t96.5 34.5h18q10 0 10 -10v-53q0 -10 -10 -10h-23q-23 0 -33 -10t-10 -35v-77q0 -6 6 -6h60q10 0 10 -10v-41q0 -10 -10 -10h-60q-6 0 -6 -6v-402q0 -10 -10 -10h-57z" />
      <glyph d="M186 -189q-50 0 -85 25t-46 65q-2 9 5 12l53 19q9 3 13 -5q17 -43 62 -43q29 0 46.5 17.5t17.5 55.5v103h-1q-9 -25 -30 -41.5t-59 -16.5q-80 0 -104 78q-3 10 -5.5 21t-4 29t-2 45.5t-0.5 68.5t0.5 68.5t2 45.5t4 29.5t5.5 20.5q12 39 37 59.5t67 20.5q38 0 59 -17
t30 -42h1v40q0 10 10 10h57q10 0 10 -10v-504q0 -76 -38.5 -115t-104.5 -39zM188 73q43 0 57 42q2 6 3.5 12.5t2 20t1 36.5t0.5 60t-0.5 60t-1 36.5t-2 20.5t-3.5 13q-7 20 -21 31t-36 11q-44 0 -58 -42q-2 -6 -3 -13t-2 -20.5t-1.5 -36.5t-0.5 -60t0.5 -60t1.5 -36.5t2 -20
t3 -12.5q14 -42 58 -42z" />
      <glyph d="M272 0q-10 0 -10 10v319q0 87 -63 87q-30 0 -47 -21t-17 -66v-319q0 -10 -10 -10h-57q-10 0 -10 10v660q0 10 10 10h57q10 0 10 -10v-239h1q11 24 33.5 40.5t57.5 16.5q56 0 84 -35.5t28 -111.5v-331q0 -10 -10 -10h-57z" />
      <glyph d="M65 588q-10 0 -10 10v72q0 10 10 10h63q10 0 10 -10v-72q0 -10 -10 -10h-63zM68 0q-10 0 -10 10v459q0 10 10 10h57q10 0 10 -10v-459q0 -10 -10 -10h-57z" />
      <glyph d="M65 588q-10 0 -10 10v72q0 10 10 10h63q10 0 10 -10v-72q0 -10 -10 -10h-63zM8 -180q-10 0 -10 10v52q0 10 10 10h11q20 2 29.5 12.5t9.5 37.5v527q0 10 10 10h57q10 0 10 -10v-529q0 -61 -27.5 -90.5t-87.5 -29.5h-12z" />
      <glyph d="M288 0q-10 0 -14 10l-90 214l-49 -87v-127q0 -10 -10 -10h-57q-10 0 -10 10v660q0 10 10 10h57q10 0 10 -10v-415l119 214q6 10 14 10h60q11 0 6 -10l-105 -175l126 -284q3 -10 -7 -10h-60z" />
      <glyph d="M177 -4q-66 2 -92.5 32t-26.5 99v543q0 10 10 10h57q10 0 10 -10v-546q0 -26 9.5 -38.5t32.5 -16.5l5 -1q10 -2 10 -11v-52q0 -10 -10 -10z" />
      <glyph d="M476 0q-10 0 -10 10v319q0 87 -64 87q-29 0 -46 -21t-17 -64v-321q0 -10 -10 -10h-57q-10 0 -10 10v319q0 87 -63 87q-30 0 -47 -21t-17 -66v-319q0 -10 -10 -10h-57q-10 0 -10 10v459q0 10 10 10h57q10 0 10 -10v-38h1q11 24 33.5 40.5t57.5 16.5q73 0 96 -57h1
q14 26 38.5 41.5t61.5 15.5q60 0 89.5 -36t29.5 -111v-331q0 -10 -10 -10h-57z" />
      <glyph d="M272 0q-10 0 -10 10v319q0 87 -63 87q-30 0 -47 -21t-17 -66v-319q0 -10 -10 -10h-57q-10 0 -10 10v459q0 10 10 10h57q10 0 10 -10v-38h1q11 24 33.5 40.5t57.5 16.5q56 0 84 -35.5t28 -111.5v-331q0 -10 -10 -10h-57z" />
      <glyph d="M187 -9q-50 0 -84 23.5t-48 68.5q-3 10 -5 20.5t-3 27t-1.5 42.5t-0.5 67t0.5 67t1.5 42.5t3 27t5 20.5q14 44 48 67.5t84 23.5t84 -23.5t48 -67.5q3 -10 5 -20.5t3 -27t1.5 -42.5t0.5 -67t-0.5 -67t-1.5 -42.5t-3 -27t-5 -20.5q-14 -45 -48 -68.5t-84 -23.5zM187 63
q45 0 59 42q2 6 3 13.5t2 21t1 37.5v63v62.5t-1 37t-2 21t-3 13.5q-14 42 -59 42t-59 -42q-2 -6 -3 -13.5t-2 -21t-1 -37v-62.5v-63t1 -37.5t2 -21t3 -13.5q14 -42 59 -42z" />
      <glyph d="M68 -180q-10 0 -10 10v639q0 10 10 10h57q10 0 10 -10v-39h1q10 25 31 41.5t60 16.5q79 0 104 -78q3 -10 5.5 -21.5t4 -29.5t2 -46.5t0.5 -72.5t-0.5 -72.5t-2 -47t-4 -30t-5.5 -21.5q-25 -78 -104 -78q-39 0 -60 17t-31 41h-1v-219q0 -10 -10 -10h-57zM201 63
q44 0 58 42q2 6 3.5 13.5t2 21t1 37.5t0.5 63t-0.5 62.5t-1 37t-2 21t-3.5 13.5q-14 42 -58 42q-23 0 -37.5 -11t-21.5 -31q-2 -6 -3.5 -13.5t-2 -21t-1 -37t-0.5 -62.5t0.5 -63t1 -37.5t2 -21t3.5 -13.5q7 -20 21.5 -31t37.5 -11z" />
      <glyph d="M264 -180q-10 0 -10 10v219h-1q-10 -24 -31 -41t-60 -17q-79 0 -104 78q-3 10 -5.5 21.5t-4 30t-2 47t-0.5 72.5t0.5 72.5t2 46.5t4 29.5t5.5 21.5q25 78 104 78q39 0 60 -16.5t31 -41.5h1v39q0 10 10 10h57q10 0 10 -10v-639q0 -10 -10 -10h-57zM189 63q22 0 36.5 11
t21.5 31q2 6 3.5 13.5t2 21t1 37.5t0.5 63t-0.5 62.5t-1 37t-2 21t-3.5 13.5q-7 20 -21.5 31t-36.5 11q-45 0 -59 -42q-2 -6 -3.5 -13.5t-2 -21t-1 -37t-0.5 -62.5t0.5 -63t1 -37.5t2 -21t3.5 -13.5q14 -42 59 -42z" />
      <glyph d="M68 0q-10 0 -10 10v459q0 10 10 10h57q10 0 10 -10v-45h1q12 28 35.5 46t60.5 18q11 0 19 -2q9 -2 6 -11l-14 -57q-3 -9 -12 -9h-15q-35 0 -58 -25t-23 -78v-296q0 -10 -10 -10h-57z" />
      <glyph d="M172 -9q-60 0 -96 31.5t-42 90.5q-2 10 8 12l51 10q10 2 12 -8q5 -37 23.5 -53t44.5 -16q29 0 46 17t17 52q0 29 -11.5 46t-43.5 30l-40 15q-47 18 -73 50.5t-26 84.5q0 59 35 97t96 38q59 0 91 -32t37 -75q2 -11 -7 -13l-48 -10q-9 -1 -12 8q-7 26 -20 41t-41 15
q-29 0 -43 -17.5t-14 -46.5q0 -22 11.5 -39t43.5 -30l40 -15q56 -21 77 -55t21 -87q0 -63 -35.5 -102t-101.5 -39z" />
      <glyph d="M178 -5q-55 0 -80 26.5t-25 87.5v303q0 6 -6 6h-29q-10 0 -10 10v41q0 10 10 10h29q6 0 6 6v135q0 10 10 10h57q10 0 10 -10v-135q0 -6 6 -6h47q10 0 10 -10v-41q0 -10 -10 -10h-47q-6 0 -6 -6v-302q0 -42 40 -42h13q10 0 10 -10v-53q0 -10 -10 -10h-25z" />
      <glyph d="M265 0q-10 0 -10 10v38h-1q-11 -24 -32.5 -40.5t-57.5 -16.5q-55 0 -82.5 35.5t-27.5 112.5v330q0 10 10 10h57q10 0 10 -10v-319q0 -87 62 -87q29 0 45.5 21.5t16.5 65.5v319q0 10 10 10h57q10 0 10 -10v-459q0 -10 -10 -10h-57z" />
      <glyph d="M150 0q-8 0 -11 10l-116 459q-3 10 7 10h60q8 0 10 -10l75 -328h2l74 328q2 10 11 10h57q10 0 8 -10l-116 -459q-3 -10 -12 -10h-49z" />
      <glyph d="M335 0q-10 0 -11 10l-61 314h-2l-59 -314q-1 -10 -11 -10h-49q-10 0 -11 10l-104 459q-3 10 7 10h60q8 0 10 -10l63 -326h1l64 326q2 10 11 10h42q8 0 10 -10l63 -326h1l63 326q2 10 11 10h59q10 0 7 -10l-104 -459q-1 -10 -11 -10h-49z" />
      <glyph d="M265 0q-9 0 -13 9l-75 163h-1l-74 -163q-4 -9 -13 -9h-60q-11 0 -5 11l114 237l-106 221q-5 10 5 10h60q9 0 13 -8l69 -148h1l66 148q4 8 13 8h59q10 0 5 -10l-107 -221l114 -237q5 -11 -5 -11h-60z" />
      <glyph d="M62 -180q-10 0 -10 10v53q0 10 10 10l12 1q21 1 32.5 12t19.5 43l17 66l-117 454q-2 10 8 10h60q8 0 10 -10l74 -327h2l74 327q2 10 11 10h58q10 0 7 -10l-131 -517q-10 -41 -21.5 -66.5t-26 -40t-33.5 -20t-45 -5.5h-11z" />
      <glyph d="M46 0q-10 0 -10 10v49q0 6 3 12l167 337v2h-150q-10 0 -10 10v49q0 10 10 10h228q10 0 10 -10v-41q0 -6 -3 -12l-170 -343v-2h163q10 0 10 -10v-51q0 -10 -10 -10h-238z" />
      <glyph d="M221 -84q-105 0 -105 112v198q0 36 -12.5 53t-42.5 19q-10 2 -10 10v45q0 10 10 10q30 2 42.5 19.5t12.5 53.5v193q0 111 105 111h21q10 0 10 -10v-45q0 -10 -10 -10h-10q-44 0 -44 -51v-170q0 -56 -10 -82.5t-41 -39.5v-3q16 -7 26 -16t15.5 -23.5t7.5 -34.5t2 -48v-175
q0 -51 44 -51h10q10 0 10 -10v-45q0 -10 -10 -10h-21z" />
      <glyph d="M96 -84q-10 0 -10 10v804q0 10 10 10h43q10 0 10 -10v-804q0 -10 -10 -10h-43z" />
      <glyph d="M50 -84q-10 0 -10 10v45q0 10 10 10h10q45 0 45 51v175q0 28 2 48t7.5 34.5t15.5 23.5t26 16v3q-32 13 -41.5 39.5t-9.5 82.5v170q0 51 -45 51h-10q-10 0 -10 10v45q0 10 10 10h22q105 0 105 -111v-193q0 -36 12 -53.5t42 -19.5q10 0 10 -10v-45q0 -8 -10 -10
q-30 -2 -42 -19t-12 -53v-198q0 -112 -105 -112h-22z" />
      <glyph d="M254 221q-20 0 -36 7t-32 18t-27.5 16.5t-22.5 5.5q-17 0 -28 -9.5t-25 -32.5q-4 -7 -13 -3l-33 18q-8 5 -4 15q19 37 42.5 56t56.5 19q20 0 35.5 -7t32.5 -18q14 -10 26.5 -16t23.5 -6q17 0 28 9.5t25 32.5q4 7 13 3l32 -18q10 -5 4 -15q-18 -37 -41.5 -56t-56.5 -19z
" />
      <glyph d="M214 -9q-51 0 -84 24t-47 69q-3 9 -5 19t-3.5 27t-2 44.5t-0.5 70.5q0 6 -6 6h-40q-10 0 -10 10v39q0 10 10 10h40q6 0 6 6v54q0 6 -6 6h-40q-10 0 -10 10v39q0 10 10 10h40q6 0 6 6q0 41 0.5 67t2 42.5t3.5 26.5t5 19q14 45 47 69t84 24q64 0 100.5 -38t43.5 -98
q2 -11 -7 -12l-54 -10q-10 -3 -12 7q-5 36 -21 57t-48 21q-45 0 -60 -42q-2 -6 -3.5 -13t-2 -21t-1 -37.5t-0.5 -61.5q0 -6 6 -6h142q10 0 10 -10l-10 -39q-2 -10 -10 -10h-132q-6 0 -6 -6v-54q0 -6 6 -6h127q10 0 10 -10l-10 -39q-3 -10 -10 -10h-117q-6 0 -6 -6
q0 -41 0.5 -65t1 -38.5t2 -22t3.5 -13.5q15 -42 60 -42q32 0 48 21t21 57q2 10 12 7l54 -10q9 -1 7 -12q-7 -60 -43.5 -98t-100.5 -38z" />
      <glyph d="M49 -89q-8 0 -8 9v155q0 10 10 10h54q10 0 10 -10v-67q0 -8 -1.5 -12.5t-5.5 -10.5l-47 -67q-6 -7 -12 -7z" />
      <glyph d="M243 337l-49 -364q-11 -79 -44.5 -116t-105.5 -37h-17q-10 0 -10 10v53q0 10 10 10h13q37 0 54 15.5t23 59.5l49 369h-68q-10 0 -10 10v44q0 10 10 10h77l17 126q11 79 44.5 116t105.5 37h18q10 0 10 -10v-53q0 -10 -10 -10h-13q-37 0 -54 -15.5t-23 -59.5l-18 -131h72
q10 0 10 -10v-44q0 -10 -10 -10h-81z" />
      <glyph d="M166 -91q-9 0 -9 9v156q0 10 10 10h54q10 0 10 -10v-68q0 -8 -1.5 -12.5t-5.5 -10.5l-47 -66q-5 -8 -11 -8zM49 -91q-8 0 -8 9v156q0 10 10 10h54q10 0 10 -10v-68q0 -8 -1.5 -12.5t-5.5 -10.5l-47 -66q-6 -8 -12 -8z" />
      <glyph d="M416 0q-10 0 -10 10v84q0 10 10 10h66q10 0 10 -10v-84q0 -10 -10 -10h-66zM237 0q-10 0 -10 10v84q0 10 10 10h66q10 0 10 -10v-84q0 -10 -10 -10h-66zM58 0q-10 0 -10 10v84q0 10 10 10h66q10 0 10 -10v-84q0 -10 -10 -10h-66z" />
      <glyph d="M212 -180q-10 0 -10 10v534q0 6 -6 6h-113q-10 0 -10 10v49q0 10 10 10h113q6 0 6 6v225q0 10 10 10h55q10 0 10 -10v-225q0 -6 6 -6h113q10 0 10 -10v-49q0 -10 -10 -10h-113q-6 0 -6 -6v-534q0 -10 -10 -10h-55z" />
      <glyph d="M212 -180q-10 0 -10 10v196q0 6 -6 6h-113q-10 0 -10 10v50q0 10 10 10h113q6 0 6 6v285q0 6 -6 6h-113q-10 0 -10 10v50q0 10 10 10h113q6 0 6 6v195q0 10 10 10h55q10 0 10 -10v-195q0 -6 6 -6h113q10 0 10 -10v-50q0 -10 -10 -10h-113q-6 0 -6 -6v-285q0 -6 6 -6h113
q10 0 10 -10v-50q0 -10 -10 -10h-113q-6 0 -6 -6v-196q0 -10 -10 -10h-55z" />
      <glyph d="M265 557q-10 0 -17 10l-52 71h-2l-52 -71q-7 -10 -17 -10h-42q-5 0 -6.5 2.5t1.5 7.5l82 123q6 10 17 10h36q11 0 17 -10l82 -123q3 -5 1.5 -7.5t-6.5 -2.5h-42z" />
      <glyph d="M179 -9q-10 0 -7 10l245 678q4 10 13 10h39q10 0 7 -10l-245 -678q-4 -10 -13 -10h-39zM153 329q-34 0 -56 15.5t-30 42.5q-2 7 -3.5 14.5t-2.5 20t-1 33v53.5v53t1 32.5t2.5 20t3.5 14.5q8 27 30 42.5t56 15.5q35 0 57 -15.5t30 -42.5q2 -7 3.5 -14.5t2 -20t1 -32.5
t0.5 -53t-0.5 -53.5t-1 -33t-2 -20t-3.5 -14.5q-8 -27 -30 -42.5t-57 -15.5zM153 381q27 0 33 22q1 3 1.5 7.5t1 15t1 30t0.5 52.5q0 32 -0.5 51.5t-1 30t-1 15t-1.5 7.5q-6 22 -33 22q-26 0 -32 -22q-1 -3 -2 -7.5t-1.5 -15t-0.5 -30v-51.5v-52.5t0.5 -30t1.5 -15t2 -7.5
q6 -22 32 -22zM741 -6q-34 0 -56 15.5t-31 42.5q-2 7 -3.5 14.5t-2.5 20t-1 32.5v53v53.5t1 33t2.5 20t3.5 14.5q9 27 31 42.5t56 15.5t56 -15.5t30 -42.5q3 -7 4.5 -14.5t2 -20t1 -33t0.5 -53.5t-0.5 -53t-1 -32.5t-2 -20t-4.5 -14.5q-8 -27 -30 -42.5t-56 -15.5zM495 -6
q-35 0 -57 15.5t-30 42.5q-2 7 -3.5 14.5t-2.5 20t-1 32.5v53v53.5t1 33t2.5 20t3.5 14.5q8 27 30 42.5t57 15.5q34 0 56 -15.5t30 -42.5q2 -7 3.5 -14.5t2 -20t1 -33t0.5 -53.5t-0.5 -53t-1 -32.5t-2 -20t-3.5 -14.5q-8 -27 -30 -42.5t-56 -15.5zM741 46q26 0 32 22
q1 3 2 7.5t1.5 15t0.5 30v51.5v52.5t-0.5 30t-1.5 15t-2 7.5q-6 22 -32 22q-25 0 -33 -22q-1 -3 -1.5 -7.5t-1 -15t-1 -30t-0.5 -52.5q0 -32 0.5 -51.5t1 -30t1 -15t1.5 -7.5q8 -22 33 -22zM495 46q26 0 32 22q1 3 2 7.5t1.5 15t0.5 30v51.5v52.5t-0.5 30t-1.5 15t-2 7.5
q-6 22 -32 22q-27 0 -33 -22q-1 -3 -1.5 -7.5t-1 -15t-1 -30t-0.5 -52.5q0 -32 0.5 -51.5t1 -30t1 -15t1.5 -7.5q6 -22 33 -22z" />
      <glyph d="M354 192q0 -103 -36 -152t-122 -49q-153 0 -160 175q0 10 8 11l59 11q11 2 11 -9q3 -63 23.5 -88.5t59.5 -25.5t57.5 24t18.5 93q0 29 -3 50t-11 35.5t-21.5 24.5t-33.5 18l-41 16q-35 13 -58 29.5t-36.5 38t-19 51t-5.5 68.5q0 176 152 176q77 0 113.5 -41t40.5 -121
q0 -10 -9 -11l-56 -9q-5 -2 -8 0.5t-3 7.5q-2 51 -19.5 75.5t-56.5 24.5q-38 0 -56 -23.5t-18 -75.5q0 -26 3.5 -44.5t11.5 -31.5t21.5 -22t34.5 -17l41 -16q33 -13 55.5 -29t36.5 -38.5t20 -53t6 -72.5zM173 750q-11 0 -17 9l-82 124q-3 4 -1.5 7t6.5 3h42q10 0 17 -10
l52 -72h2l52 72q7 10 17 10h42q5 0 6.5 -3t-1.5 -7l-82 -124q-6 -9 -17 -9h-36z" />
      <glyph d="M39 257q-7 7 0 14l161 166q3 3 6.5 2t3.5 -6v-60q0 -9 -9 -18l-84 -87q-4 -4 0 -8l84 -87q9 -9 9 -18v-60q0 -5 -3.5 -6t-6.5 2z" />
      <glyph d="M301 0q-10 0 -10 10v21h-1q-11 -17 -34 -28.5t-56 -11.5q-106 0 -138 98q-4 11 -6.5 24.5t-4 40t-2 70.5t-0.5 116t0.5 116t2 70.5t4 40t6.5 24.5q32 98 138 98q33 0 56 -11.5t34 -28.5h1v21q0 10 10 10h257q10 0 10 -10v-55q0 -10 -10 -10h-180q-6 0 -6 -6v-212
q0 -6 6 -6h156q10 0 10 -10v-55q0 -10 -10 -10h-156q-6 0 -6 -6v-219q0 -6 6 -6h180q10 0 10 -10v-55q0 -10 -10 -10h-257zM211 67q55 0 72 48q2 7 3.5 16.5t2.5 32t1.5 64t0.5 112.5t-0.5 112.5t-1.5 64t-2.5 31.5t-3.5 17q-17 48 -72 48q-56 0 -71 -48q-3 -8 -4.5 -17
t-2.5 -31.5t-1.5 -64t-0.5 -112.5t0.5 -112.5t1.5 -64t2.5 -32t4.5 -16.5q15 -48 71 -48z" />
      <glyph d="M167 750q-11 0 -17 9l-82 124q-3 4 -1.5 7t6.5 3h42q10 0 17 -10l52 -72h2l52 72q7 10 17 10h42q5 0 6.5 -3t-1.5 -7l-82 -124q-6 -9 -17 -9h-36zM45 0q-10 0 -10 10v52q0 6 2 12l206 529v2h-188q-10 0 -10 10v55q0 10 10 10h263q10 0 10 -10v-53q0 -6 -2 -12l-206 -528
v-2h198q10 0 10 -10v-55q0 -10 -10 -10h-273z" />
      <glyph d="M51 509q-10 0 -10 10v64q0 13 6 23l48 67q5 8 12 8q8 0 8 -9v-153q0 -10 -10 -10h-54z" />
      <glyph d="M49 506q-8 0 -8 9v155q0 10 10 10h54q10 0 10 -10v-68q0 -8 -1.5 -12.5t-5.5 -10.5l-47 -66q-6 -7 -12 -7z" />
      <glyph d="M167 506q-10 0 -10 10v68q0 13 7 23l47 66q5 8 11 8q9 0 9 -9v-156q0 -10 -10 -10h-54zM51 506q-10 0 -10 10v68q0 8 1 13t5 10l48 66q5 8 11 8q9 0 9 -9v-156q0 -10 -10 -10h-54z" />
      <glyph d="M166 506q-9 0 -9 9v155q0 10 10 10h54q10 0 10 -10v-68q0 -8 -1.5 -12.5t-5.5 -10.5l-47 -66q-4 -7 -11 -7zM49 506q-8 0 -8 9v155q0 10 10 10h54q10 0 10 -10v-68q0 -8 -1.5 -12.5t-5.5 -10.5l-47 -66q-6 -7 -12 -7z" />
      <glyph d="M209 192q-50 0 -83 33t-33 83q0 51 33 83.5t83 32.5t82.5 -32.5t32.5 -83.5q0 -50 -32.5 -83t-82.5 -33z" />
      <glyph d="M27 234q-10 0 -10 10v44q0 10 10 10h338q10 0 10 -10v-44q0 -10 -10 -10h-338z" />
      <glyph d="M27 234q-10 0 -10 10v44q0 10 10 10h525q10 0 10 -10v-44q0 -10 -10 -10h-525z" />
      <glyph d="M236 581q-15 0 -26.5 5.5t-22.5 13.5t-18.5 12t-16.5 4q-14 0 -23.5 -7t-20.5 -20q-4 -4 -8 -3t-4 6v47q0 9 9 18q9 10 20.5 17t27.5 7q15 0 26 -5.5t22 -13.5t18.5 -12.5t17.5 -4.5q14 0 23.5 7.5t20.5 20.5q3 4 7 2.5t4 -6.5v-47q0 -5 -1.5 -8.5t-6.5 -8.5
q-9 -11 -20.5 -17.5t-27.5 -6.5z" />
      <glyph d="M539 286q-10 0 -10 10v232h-1l-51 -168q-3 -10 -11 -10h-22q-8 0 -11 10l-50 168h-1v-232q0 -10 -10 -10h-37q-10 0 -10 10v374q0 10 10 10h42q9 0 12 -10l67 -232h1l65 232q3 10 12 10h41q10 0 10 -10v-374q0 -10 -10 -10h-36zM148 286q-10 0 -10 10v322q0 5 -5 5h-60
q-10 0 -10 10v37q0 10 10 10h190q10 0 10 -10v-37q0 -10 -10 -10h-60q-5 0 -5 -5v-322q0 -10 -10 -10h-40z" />
      <glyph d="M156 556q-11 0 -17 10l-82 123q-3 5 -1.5 7.5t6.5 2.5h42q10 0 17 -10l52 -71h2l52 71q7 10 17 10h42q5 0 6.5 -2.5t-1.5 -7.5l-82 -123q-6 -10 -17 -10h-36zM172 -9q-60 0 -96 31.5t-42 90.5q-2 10 8 12l51 10q10 2 12 -8q5 -37 23.5 -53t44.5 -16q29 0 46 17t17 52
q0 29 -11.5 46t-43.5 30l-40 15q-47 18 -73 50.5t-26 84.5q0 59 35 97t96 38q59 0 91 -32t37 -75q2 -11 -7 -13l-48 -10q-9 -1 -12 8q-7 26 -20 41t-41 15q-29 0 -43 -17.5t-14 -46.5q0 -22 11.5 -39t43.5 -30l40 -15q56 -21 77 -55t21 -87q0 -63 -35.5 -102t-101.5 -39z
" />
      <glyph d="M71 91q-3 -3 -6.5 -2t-3.5 6v60q0 9 9 18l84 87q4 4 0 8l-84 87q-9 9 -9 18v60q0 5 3.5 6t6.5 -2l161 -166q7 -7 0 -14z" />
      <glyph d="M391 -9q-34 0 -60 12.5t-39 35.5h-2q-35 -48 -103 -48q-50 0 -84 23.5t-48 68.5q-3 10 -5 20.5t-3 27t-1.5 42.5t-0.5 67t0.5 67t1.5 42.5t3 27t5 20.5q14 44 48 67.5t84 23.5q68 0 103 -47h1q35 47 102 47q51 0 83 -23t46 -66q3 -8 5 -18.5t3.5 -29.5t2 -48.5t0.5 -76.5
q0 -10 -10 -10h-188q-6 0 -6 -6q0 -29 0.5 -47.5t1.5 -29.5t2 -17.5t3 -11.5q15 -41 56 -41q49 0 64 54q3 10 12 8l53 -11q9 -1 7 -12q-10 -52 -46 -81.5t-91 -29.5zM450 281q6 0 6 6q0 23 -0.5 38.5t-1.5 25.5t-2.5 16t-2.5 11q-13 40 -56 40q-44 0 -57 -40q-2 -5 -3 -11
t-2 -16t-1.5 -25.5t-0.5 -38.5q0 -6 6 -6h115zM187 63q45 0 59 42q2 6 3 13.5t2 21t1 37.5v63v62.5t-1 37t-2 21t-3 13.5q-14 42 -59 42t-59 -42q-2 -6 -3 -13.5t-2 -21t-1 -37v-62.5v-63t1 -37.5t2 -21t3 -13.5q14 -42 59 -42z" />
      <glyph d="M155 556q-11 0 -17 10l-82 123q-3 5 -1.5 7.5t6.5 2.5h42q10 0 17 -10l52 -71h2l52 71q7 10 17 10h42q5 0 6.5 -2.5t-1.5 -7.5l-82 -123q-6 -10 -17 -10h-36zM46 0q-10 0 -10 10v49q0 6 3 12l167 337v2h-150q-10 0 -10 10v49q0 10 10 10h228q10 0 10 -10v-41q0 -6 -3 -12
l-170 -343v-2h163q10 0 10 -10v-51q0 -10 -10 -10h-238z" />
      <glyph d="M157 0q-10 0 -10 10v271l-131 389q-3 10 7 10h63q9 0 12 -10l89 -285h3l89 285q3 10 11 10h62q10 0 7 -10l-131 -389v-271q0 -10 -10 -10h-61zM235 777q-10 0 -10 10v72q0 10 10 10h51q10 0 10 -10v-72q0 -10 -10 -10h-51zM90 777q-10 0 -10 10v72q0 10 10 10h51
q10 0 10 -10v-72q0 -10 -10 -10h-51z" />
      <glyph />
      <glyph d="M130.006 309.011q9.99902 0 9.99902 -10l15.999 -489.97q0 -10 -9.99902 -10h-64.9961q-9.99902 0 -9.99902 10l15.999 489.97q0 10 9.99902 10h32.998zM156.004 385.006q0 -10 -9.99902 -10h-64.9961q-9.99902 0 -9.99902 10v83.9951q0 9.99902 9.99902 9.99902h64.9961
q9.99902 0 9.99902 -9.99902v-83.9951z" />
      <glyph d="M192 -100q-10 0 -10 10v82q-91 6 -115 88q-3 10 -5.5 20t-4 26.5t-2 43t-0.5 70.5q0 43 0.5 69.5t2 43t4 26t5.5 20.5q25 82 115 88v83q0 10 10 10h13q10 0 10 -10v-83q51 -4 82 -33.5t39 -80.5q2 -9 -6 -11l-55 -11q-11 -2 -12 7q-10 49 -48 56v-349q20 4 31.5 17
t16.5 39q2 10 12 7l55 -11q8 -2 6 -11q-8 -51 -39 -80t-82 -34v-82q0 -10 -10 -10h-13zM139 103q12 -34 43 -38v349q-32 -6 -43 -37q-2 -7 -3.5 -14t-2 -20.5t-1 -37.5t-0.5 -65t0.5 -65.5t1 -38t2 -20.5t3.5 -13z" />
      <glyph d="M58 0q-10 0 -10 10v52q0 5 4 11q17 19 23.5 38.5t6.5 54.5v119q0 6 -6 6h-29q-10 0 -10 10v38q0 10 10 10h29q6 0 6 6v185q0 69 33 109t99 40q33 0 56.5 -10t39.5 -28.5t24.5 -44t11.5 -56.5q0 -11 -8 -12l-54 -9q-10 -1 -12 8q-2 42 -15.5 60.5t-42.5 18.5
q-54 0 -54 -74v-187q0 -6 6 -6h94q10 0 10 -10v-38q0 -10 -10 -10h-94q-6 0 -6 -6v-119q0 -33 -6.5 -55t-22.5 -37v-2h208q10 0 10 -10v-52q0 -10 -10 -10h-281z" />
      <glyph d="M316 174q-7 -7 -14 0l-37 37q-32 -20 -72 -20q-42 0 -73 21l-37 -38q-8 -6 -14 0l-25 26q-7 7 0 14l37 37q-20 32 -20 72t21 72l-37 37q-6 6 0 14l25 25q7 7 14 0l37 -38q32 21 72 21q20 0 38 -5.5t34 -15.5l37 38q7 7 14 0l25 -25q8 -8 0 -14l-38 -38q21 -32 21 -71
q0 -41 -20 -72l37 -37q7 -7 0 -14zM193 246q33 0 54 21.5t21 55.5q0 33 -21 54.5t-54 21.5t-54 -21.5t-21 -54.5q0 -34 21 -55.5t54 -21.5z" />
      <glyph d="M165 0q-10 0 -10 10v129q0 6 -6 6h-88q-10 0 -10 10v39q0 10 10 10h88q6 0 6 6v51q0 6 -6 6h-88q-10 0 -10 10v39q0 10 10 10h80v3l-110 341q-3 10 7 10h61q9 0 12 -10l83 -283h2l81 283q3 10 12 10h60q10 0 7 -10l-111 -341v-3h80q10 0 10 -10v-39q0 -10 -10 -10h-87
q-6 0 -6 -6v-51q0 -6 6 -6h87q10 0 10 -10v-39q0 -10 -10 -10h-87q-6 0 -6 -6v-129q0 -10 -10 -10h-57z" />
      <glyph d="M110 388q-10 0 -10 10v332q0 10 10 10h43q10 0 10 -10v-332q0 -10 -10 -10h-43zM110 -84q-10 0 -10 10v336q0 10 10 10h43q10 0 10 -10v-336q0 -10 -10 -10h-43z" />
      <glyph d="M222 -189q-50 0 -80.5 21t-42.5 59q-5 14 -6.5 30t-1.5 39q0 10 8 10l52 5q9 0 9 -9q0 -23 1.5 -34t3.5 -19q12 -37 58 -37t57 37q3 8 4.5 18t1.5 29q0 18 -1 30t-5 22q-7 23 -29 38t-62 26t-62.5 32t-33.5 54q-6 17 -9 38t-3 53q0 26 2.5 43.5t7.5 33.5q9 27 26 46
t43 28v1q-20 8 -35 23t-23 40q-9 27 -9 72q0 23 1.5 38.5t6.5 29.5q13 38 44 59.5t79 21.5t78.5 -21t42.5 -59q5 -14 6.5 -30t1.5 -39q0 -10 -8 -10l-52 -5q-9 0 -9 9q0 23 -1 34t-4 19q-12 37 -54 37q-43 0 -55 -37q-2 -8 -3.5 -18t-1.5 -29q0 -14 1 -25.5t5 -21.5
q7 -23 27.5 -37t61.5 -26q39 -11 62 -32t34 -54q5 -17 8 -38.5t3 -52.5q0 -26 -2 -44t-7 -33q-18 -56 -69 -74v-1q20 -8 36 -23t24 -40q5 -14 7 -32t2 -44q0 -25 -1.5 -40.5t-6.5 -29.5q-13 -38 -45 -59.5t-83 -21.5zM224 139q50 0 64 45q4 11 5.5 25.5t1.5 43.5
q0 28 -1.5 42.5t-5.5 25.5q-13 45 -64 45q-49 0 -64 -45q-3 -11 -5 -25.5t-2 -42.5q0 -29 2 -43.5t5 -25.5q15 -45 64 -45z" />
      <glyph d="M242 588q-10 0 -10 10v72q0 10 10 10h51q10 0 10 -10v-72q0 -10 -10 -10h-51zM97 588q-10 0 -10 10v72q0 10 10 10h51q10 0 10 -10v-72q0 -10 -10 -10h-51z" />
      <glyph d="M360 -9q-110 0 -186 53t-108 150q-8 26 -13 60.5t-5 85.5t5 85.5t13 60.5q32 97 108 150t186 53q109 0 185 -53t108 -150q8 -26 13 -60.5t5 -85.5t-5 -85.5t-13 -60.5q-32 -97 -108 -150t-185 -53zM360 46q89 0 149.5 41.5t86.5 119.5q8 23 12.5 53.5t4.5 79.5t-4.5 79.5
t-12.5 53.5q-26 78 -86.5 119.5t-149.5 41.5q-90 0 -150.5 -41.5t-86.5 -119.5q-8 -23 -12.5 -53.5t-4.5 -79.5t4.5 -79.5t12.5 -53.5q26 -78 86.5 -119.5t150.5 -41.5zM363 143q-39 0 -66 18.5t-38 53.5q-2 6 -4 14.5t-3 22t-1.5 34.5t-0.5 54t0.5 54t1.5 34.5t3 22t4 14.5
q11 35 38 53.5t66 18.5q47 0 75 -24.5t33 -59.5q2 -8 -6 -10l-42 -8q-8 -2 -10 6q-12 38 -50 38q-35 0 -45 -32q-2 -4 -3 -8.5t-1.5 -15.5t-1 -30.5t-0.5 -52.5t0.5 -52.5t1 -30.5t1.5 -15.5t3 -8.5q10 -32 45 -32q38 0 50 38q2 8 10 6l42 -8q8 -2 6 -10q-5 -35 -33 -59.5
t-75 -24.5z" />
      <glyph d="M183 392q-10 0 -10 10v19h-1q-5 -14 -21 -23.5t-36 -9.5q-33 0 -53.5 21t-20.5 63q0 51 26 73.5t68 22.5h32q6 0 6 6v13q0 28 -11 39t-34 11q-11 0 -24 -4.5t-27 -14.5q-9 -5 -14 3l-11 27q-4 7 4 13q14 11 35 18.5t45 7.5q44 0 67 -21.5t23 -74.5v-189q0 -10 -10 -10
h-33zM130 434q19 0 31 13t12 35v36q0 6 -6 6h-26q-48 0 -48 -47q0 -43 37 -43z" />
      <glyph d="M213 257q-7 7 0 14l161 166q3 3 6.5 2t3.5 -6v-60q0 -9 -9 -18l-84 -87q-4 -4 0 -8l84 -87q9 -9 9 -18v-60q0 -5 -3.5 -6t-6.5 2zM39 257q-7 7 0 14l161 166q3 3 6.5 2t3.5 -6v-60q0 -9 -9 -18l-84 -87q-4 -4 0 -8l84 -87q9 -9 9 -18v-60q0 -5 -3.5 -6t-6.5 2z" />
      <glyph d="M287 148q-10 0 -10 10v77q0 6 -6 6h-223q-10 0 -10 10v50q0 10 10 10h290q10 0 10 -10v-143q0 -10 -10 -10h-51z" />
      <glyph d="M51 230q-10 0 -10 10v52q0 10 10 10h232q10 0 10 -10v-52q0 -10 -10 -10h-232z" />
      <glyph d="M216 303q-60 0 -102 29t-59 84q-4 14 -7 31.5t-3 45.5q0 27 3 45t7 32q17 54 59 83t102 29t102 -29t59 -83q4 -14 6.5 -32t2.5 -45q0 -28 -2.5 -45.5t-6.5 -31.5q-17 -55 -59 -84t-102 -29zM216 332q48 0 82 24t48 67q4 12 7 28.5t3 41.5q0 24 -3 40.5t-7 28.5
q-14 43 -48 67t-82 24t-82.5 -24t-48.5 -67q-4 -12 -6.5 -28.5t-2.5 -40.5q0 -25 2.5 -41.5t6.5 -28.5q14 -43 48.5 -67t82.5 -24zM173 388q-7 0 -7 7v198q0 7 7 7h43q30 0 45 -14.5t15 -46.5q0 -39 -27 -53l30 -91q1 -7 -6 -7h-20q-7 0 -8 7l-25 82q-5 -1 -9 -1h-9
q-4 0 -4 -4v-77q0 -7 -7 -7h-18zM213 507q16 0 23 6.5t7 25.5q0 18 -7 24.5t-23 6.5h-11q-4 0 -4 -4v-55q0 -4 4 -4h11z" />
      <glyph d="M98 603q-10 0 -10 10v43q0 10 10 10h194q10 0 10 -10v-43q0 -10 -10 -10h-194z" />
      <glyph d="M166 452q-51 0 -83.5 32.5t-32.5 82.5q0 51 32.5 83.5t83.5 32.5q50 0 82.5 -32.5t32.5 -83.5q0 -50 -32.5 -82.5t-82.5 -32.5zM166 500q29 0 47 19t18 48t-18 48.5t-47 19.5t-47.5 -19.5t-18.5 -48.5t18.5 -48t47.5 -19z" />
      <glyph d="M167 137q-10 0 -10 10v105q0 6 -6 6h-103q-10 0 -10 10v49q0 10 10 10h103q6 0 6 6v105q0 10 10 10h52q10 0 10 -10v-105q0 -6 6 -6h103q10 0 10 -10v-49q0 -10 -10 -10h-103q-6 0 -6 -6v-105q0 -10 -10 -10h-52zM48 0q-10 0 -10 10v50q0 10 10 10h290q10 0 10 -10v-50
q0 -10 -10 -10h-290z" />
      <glyph d="M47 430q-10 0 -10 10v36q0 8 4 16l113 178q9 14 13.5 28t4.5 33q0 15 -0.5 22t-2.5 12q-8 22 -35 22q-28 0 -35 -22q-2 -5 -3 -13t-1 -28q0 -11 -11 -9l-39 4q-9 1 -9 12q0 20 1.5 30.5t4.5 20.5q19 61 93 61q36 0 60.5 -16t33.5 -45q3 -10 4.5 -20.5t1.5 -30.5
q0 -27 -7.5 -49t-21.5 -44l-96 -151v-1h115q10 0 10 -10v-36q0 -10 -10 -10h-178z" />
      <glyph d="M134 423q-36 0 -60 15.5t-33 44.5q-6 19 -6 42q0 11 10 12l38 4q11 2 11 -10t1 -18.5t3 -11.5q7 -22 35 -22t35 22q2 5 3 13t1 31t-0.5 31.5t-2.5 13.5q-7 22 -36 22h-8q-10 0 -10 10v37q0 10 10 10h7q30 0 37 21q2 5 2.5 12.5t0.5 26.5q0 17 -1 24t-3 12q-7 22 -35 22
t-35 -22q-2 -5 -3 -11.5t-1 -18.5t-11 -10l-38 4q-10 1 -10 12q0 22 6 42q9 29 33 44.5t60 15.5q37 0 61 -15.5t33 -44.5q3 -10 4.5 -21.5t1.5 -32.5q0 -23 -1 -32.5t-3 -16.5q-9 -27 -35 -38v-1q27 -13 34 -38q3 -8 4 -20t1 -38q0 -27 -1.5 -39.5t-4.5 -22.5
q-9 -29 -33 -44.5t-61 -15.5z" />
      <glyph d="M126 557q-10 0 -5 10l69 123q6 10 16 10h59q5 0 6 -3t-1 -7l-87 -123q-5 -6 -8 -8t-9 -2h-40z" />
      <glyph d="M269 0q-10 0 -10 10v38h-1q-9 -26 -29 -41.5t-51 -15.5q-13 0 -25 5t-18 14v-180q0 -10 -10 -10h-57q-10 0 -10 10v639q0 10 10 10h57q10 0 10 -10v-319q0 -87 62 -87q29 0 45.5 21t16.5 66v319q0 10 10 10h57q10 0 10 -10v-459q0 -10 -10 -10h-57z" />
      <glyph d="M269 0q-10 0 -10 10v38h-1q-9 -26 -29 -41.5t-51 -15.5q-13 0 -25 5t-18 14v-180q0 -10 -10 -10h-57q-10 0 -10 10v639q0 10 10 10h57q10 0 10 -10v-319q0 -87 62 -87q29 0 45.5 21t16.5 66v319q0 10 10 10h57q10 0 10 -10v-459q0 -10 -10 -10h-57z" />
      <glyph d="M347 -180q-10 0 -10 10v778q0 6 -6 6h-50q-6 0 -6 -6v-778q0 -10 -10 -10h-43q-10 0 -10 10v428q-35 4 -63 21.5t-48 45.5t-30.5 64.5t-10.5 79.5t13 81.5t37 67.5t59 45.5t79 16.5h143q10 0 10 -10v-840q0 -10 -10 -10h-44z" />
      <glyph d="M60 213q-10 0 -10 10v84q0 10 10 10h65q10 0 10 -10v-84q0 -10 -10 -10h-65z" />
      <glyph d="M194 0q4 10 13 10h42q10 0 7 -10l-48 -142q-4 -10 -16 -10h-48q-10 0 -7 10z" />
      <glyph d="M136 430q-10 0 -10 10v325h-1l-56 -35q-5 -3 -8 -1.5t-3 6.5v45q0 9 7 13l57 38q8 5 16 5h40q10 0 10 -10v-386q0 -10 -10 -10h-42z" />
      <glyph d="M140 387q-33 0 -56 15t-33 45q-2 6 -3.5 12t-2 15.5t-1 24.5t-0.5 38t0.5 38t1 24.5t2 15.5t3.5 12q10 30 33 45t56 15q70 0 90 -60q2 -6 3.5 -12t2 -15.5t1 -24.5t0.5 -38t-0.5 -38t-1 -24.5t-2 -15.5t-3.5 -12q-20 -60 -90 -60zM140 437q30 0 40 27q1 3 2 7.5t1.5 12
t0.5 20v33.5v33.5t-0.5 20t-1.5 12t-2 7.5q-10 27 -40 27q-29 0 -39 -27q-1 -3 -2 -7.5t-1.5 -12t-0.5 -20v-33.5v-33.5t0.5 -20t1.5 -12t2 -7.5q10 -27 39 -27z" />
      <glyph d="M245 91q-3 -3 -6.5 -2t-3.5 6v60q0 9 9 18l84 87q4 4 0 8l-84 87q-9 9 -9 18v60q0 5 3.5 6t6.5 -2l161 -166q7 -7 0 -14zM71 91q-3 -3 -6.5 -2t-3.5 6v60q0 9 9 18l84 87q4 4 0 8l-84 87q-9 9 -9 18v60q0 5 3.5 6t6.5 -2l161 -166q7 -7 0 -14z" />
      <glyph d="M158 274q-10 0 -10 10v325h-1l-56 -35q-5 -3 -8 -1.5t-3 6.5v45q0 9 7 13l57 38q8 5 16 5h40q10 0 10 -10v-386q0 -10 -10 -10h-42zM537 1q-10 0 -10 10v46q0 6 -6 6h-119q-10 0 -10 10v36q0 7 3 16l88 272q3 10 12 10h44q10 0 7 -10l-90 -276v-2h65q6 0 6 6v99
q0 10 10 10h39q10 0 10 -10v-99q0 -6 5 -6h23q10 0 10 -10v-36q0 -10 -10 -10h-22q-6 0 -6 -6v-46q0 -10 -10 -10h-39zM194 -9q-10 0 -7 10l245 678q4 10 13 10h39q10 0 7 -10l-245 -678q-4 -10 -13 -10h-39z" />
      <glyph d="M158 274q-10 0 -10 10v325h-1l-56 -35q-5 -3 -8 -1.5t-3 6.5v45q0 9 7 13l57 38q8 5 16 5h40q10 0 10 -10v-386q0 -10 -10 -10h-42zM455 1q-10 0 -10 10v36q0 8 4 16l113 178q9 14 13.5 28t4.5 33q0 15 -0.5 22t-2.5 12q-8 22 -35 22q-28 0 -35 -22q-2 -5 -3 -13t-1 -28
q0 -11 -11 -9l-39 4q-9 1 -9 12q0 20 1.5 30.5t4.5 20.5q19 61 93 61q36 0 60.5 -16t33.5 -45q3 -10 4.5 -20.5t1.5 -30.5q0 -27 -7.5 -49t-21.5 -44l-96 -151v-1h115q10 0 10 -10v-36q0 -10 -10 -10h-178zM194 -9q-10 0 -7 10l245 678q4 10 13 10h39q10 0 7 -10l-245 -678
q-4 -10 -13 -10h-39z" />
      <glyph d="M582 1q-10 0 -10 10v46q0 6 -6 6h-119q-10 0 -10 10v36q0 7 3 16l88 272q3 10 12 10h44q10 0 7 -10l-90 -276v-2h65q6 0 6 6v99q0 10 10 10h39q10 0 10 -10v-99q0 -6 5 -6h23q10 0 10 -10v-36q0 -10 -10 -10h-22q-6 0 -6 -6v-46q0 -10 -10 -10h-39zM239 -9q-10 0 -7 10
l245 678q4 10 13 10h39q10 0 7 -10l-245 -678q-4 -10 -13 -10h-39zM179 267q-36 0 -60 15.5t-33 44.5q-6 19 -6 42q0 11 10 12l38 4q11 2 11 -10t1 -18.5t3 -11.5q7 -22 35 -22t35 22q2 5 3 13t1 31t-0.5 31.5t-2.5 13.5q-7 22 -36 22h-8q-10 0 -10 10v37q0 10 10 10h7
q30 0 37 21q2 5 2.5 12.5t0.5 26.5q0 17 -1 24t-3 12q-7 22 -35 22t-35 -22q-2 -5 -3 -11.5t-1 -18.5t-11 -10l-38 4q-10 1 -10 12q0 22 6 42q9 29 33 44.5t60 15.5q37 0 61 -15.5t33 -44.5q3 -10 4.5 -21.5t1.5 -32.5q0 -23 -1 -32.5t-3 -16.5q-9 -27 -35 -38v-1
q27 -13 34 -38q3 -8 4 -20t1 -38q0 -27 -1.5 -39.5t-4.5 -22.5q-9 -29 -33 -44.5t-61 -15.5z" />
      <glyph d="M218.009 309.011q9.99902 0 9.99902 -10v-72.9951q0 -18.999 -4 -34.998q-3.99902 -15.999 -13.999 -33.998l-54.9961 -102.993q-13.999 -25.999 -19.999 -48.4971q-6 -22.499 -6 -57.4971q0 -30.998 5 -44.9971q12.999 -39.998 56.9971 -39.998
q43.9971 0 56.9961 39.998q3 8 4.5 21.499t1.5 48.4971q0 11.999 10.999 9.99902l54.9961 -6q9 -1 9 -11.999q0 -37.998 -2 -54.9961q-2 -16.999 -7 -30.998q-13.999 -41.998 -47.9961 -65.4961q-33.998 -23.499 -81.9951 -23.499q-50.9971 0 -83.4951 23.999
q-32.498 23.998 -46.4971 64.9961q-4 12.999 -6.5 29.498t-2.5 39.4971q0 37.998 7 63.9961q6.99902 25.999 22.998 56.9971l54.9971 104.993q8 13.999 11.499 26.498q3.5 12.5 3.5 28.499v69.9951q0 10 9.99902 10h56.9971zM232.008 385.006q0 -10 -9.99902 -10h-64.9961
q-10 0 -10 10v83.9951q0 9.99902 10 9.99902h64.9961q9.99902 0 9.99902 -9.99902v-83.9951z" />
      <glyph d="M163 670q3 10 11 10h60q9 0 11 -10l143 -660q2 -10 -9 -10h-60q-9 0 -11 10l-30 149h-151l-30 -149q-2 -10 -10 -10h-60q-11 0 -9 10zM264 229l-58 296h-3l-62 -296h123zM187 763q-10 0 -19 10l-93 105q-3 4 -1.5 7t6.5 3h58q7 0 10 -2.5t7 -7.5l76 -105q3 -4 1.5 -7
t-6.5 -3h-39z" />
      <glyph d="M163 670q3 10 11 10h60q9 0 11 -10l143 -660q2 -10 -9 -10h-60q-9 0 -11 10l-30 149h-151l-30 -149q-2 -10 -10 -10h-60q-11 0 -9 10zM264 229l-58 296h-3l-62 -296h123zM185 763q-5 0 -7 3t1 7l77 105q4 5 7 7.5t9 2.5h58q5 0 6.5 -3t-1.5 -7l-93 -105q-9 -10 -19 -10
h-38z" />
      <glyph d="M163 670q3 10 11 10h60q9 0 11 -10l143 -660q2 -10 -9 -10h-60q-9 0 -11 10l-30 149h-151l-30 -149q-2 -10 -10 -10h-60q-11 0 -9 10zM264 229l-58 296h-3l-62 -296h123zM272 752q-10 0 -17 10l-52 71h-2l-52 -71q-7 -10 -17 -10h-42q-5 0 -6.5 2.5t1.5 7.5l82 123
q6 10 17 10h36q11 0 17 -10l82 -123q3 -5 1.5 -7.5t-6.5 -2.5h-42z" />
      <glyph d="M163 670q3 10 11 10h60q9 0 11 -10l143 -660q2 -10 -9 -10h-60q-9 0 -11 10l-30 149h-151l-30 -149q-2 -10 -10 -10h-60q-11 0 -9 10zM264 229l-58 296h-3l-62 -296h123zM244 773q-15 0 -26.5 5.5t-22.5 13.5t-18.5 12t-16.5 4q-14 0 -23.5 -7t-20.5 -20q-4 -4 -8 -3
t-4 6v47q0 9 9 18q9 10 20.5 17t27.5 7q15 0 26 -5.5t22 -13.5t18.5 -12.5t17.5 -4.5q14 0 23.5 7.5t20.5 20.5q3 4 7 2.5t4 -6.5v-47q0 -5 -1.5 -8.5t-6.5 -8.5q-9 -11 -20.5 -17.5t-27.5 -6.5z" />
      <glyph d="M163 670q3 10 11 10h60q9 0 11 -10l143 -660q2 -10 -9 -10h-60q-9 0 -11 10l-30 149h-151l-30 -149q-2 -10 -10 -10h-60q-11 0 -9 10zM264 229l-58 296h-3l-62 -296h123zM249 777q-10 0 -10 10v72q0 10 10 10h51q10 0 10 -10v-72q0 -10 -10 -10h-51zM104 777
q-10 0 -10 10v72q0 10 10 10h51q10 0 10 -10v-72q0 -10 -10 -10h-51z" />
      <glyph d="M163 670q3 10 11 10h60q9 0 11 -10l143 -660q2 -10 -9 -10h-60q-9 0 -11 10l-30 149h-151l-30 -149q-2 -10 -10 -10h-60q-11 0 -9 10zM264 229l-58 296h-3l-62 -296h123zM202 731q-38 0 -62 24.5t-24 61.5q0 38 24 62t62 24q37 0 61.5 -24t24.5 -62q0 -37 -24.5 -61.5
t-61.5 -24.5zM202 768q20 0 33.5 14t13.5 35t-13.5 35t-33.5 14t-33.5 -14t-13.5 -35t13.5 -35t33.5 -14z" />
      <glyph d="M332 0q-10 0 -10 10v143q0 6 -6 6h-163l-56 -149q-3 -10 -13 -10h-59q-10 0 -7 10l251 660q3 10 12 10h308q10 0 10 -10v-55q0 -10 -10 -10h-180q-6 0 -6 -6v-212q0 -6 6 -6h156q10 0 10 -10v-55q0 -10 -10 -10h-156q-6 0 -6 -6v-219q0 -6 6 -6h180q10 0 10 -10v-55
q0 -10 -10 -10h-257zM180 229h136q6 0 6 6v362h-3z" />
      <glyph d="M127 -152q-10 0 -7 10l54 136q-85 12 -113 97q-3 10 -5.5 23.5t-4 39.5t-2 70t-0.5 116t0.5 116t2 70t4 39t5.5 24q16 48 52 74t94 26q67 0 106 -37t46 -115q1 -10 -8 -12l-57 -11q-11 -2 -11 8q-7 91 -75 91q-53 0 -68 -47q-2 -7 -4 -17t-3 -33t-1.5 -64.5t-0.5 -111.5
q0 -71 0.5 -112t1.5 -64t3 -33t4 -17q15 -47 68 -47q68 0 75 91q0 10 11 8l57 -11q9 -2 8 -12q-6 -69 -37.5 -105.5t-85.5 -44.5l-45 -135q-4 -10 -16 -10h-48z" />
      <glyph d="M182 763q-10 0 -19 10l-93 105q-3 4 -1.5 7t6.5 3h58q7 0 10 -2.5t7 -7.5l76 -105q3 -4 1.5 -7t-6.5 -3h-39zM60 670q0 10 10 10h257q10 0 10 -10v-55q0 -10 -10 -10h-180q-6 0 -6 -6v-212q0 -6 6 -6h156q10 0 10 -10v-55q0 -10 -10 -10h-156q-6 0 -6 -6v-219q0 -6 6 -6
h180q10 0 10 -10v-55q0 -10 -10 -10h-257q-10 0 -10 10v660z" />
      <glyph d="M171 763q-5 0 -7 3t1 7l77 105q4 5 7 7.5t9 2.5h58q5 0 6.5 -3t-1.5 -7l-93 -105q-9 -10 -19 -10h-38zM60 670q0 10 10 10h257q10 0 10 -10v-55q0 -10 -10 -10h-180q-6 0 -6 -6v-212q0 -6 6 -6h156q10 0 10 -10v-55q0 -10 -10 -10h-156q-6 0 -6 -6v-219q0 -6 6 -6h180
q10 0 10 -10v-55q0 -10 -10 -10h-257q-10 0 -10 10v660z" />
      <glyph d="M60 670q0 10 10 10h257q10 0 10 -10v-55q0 -10 -10 -10h-180q-6 0 -6 -6v-212q0 -6 6 -6h156q10 0 10 -10v-55q0 -10 -10 -10h-156q-6 0 -6 -6v-219q0 -6 6 -6h180q10 0 10 -10v-55q0 -10 -10 -10h-257q-10 0 -10 10v660zM267 752q-10 0 -17 10l-52 71h-2l-52 -71
q-7 -10 -17 -10h-42q-5 0 -6.5 2.5t1.5 7.5l82 123q6 10 17 10h36q11 0 17 -10l82 -123q3 -5 1.5 -7.5t-6.5 -2.5h-42z" />
      <glyph d="M243 777q-10 0 -10 10v72q0 10 10 10h51q10 0 10 -10v-72q0 -10 -10 -10h-51zM98 777q-10 0 -10 10v72q0 10 10 10h51q10 0 10 -10v-72q0 -10 -10 -10h-51zM60 670q0 10 10 10h257q10 0 10 -10v-55q0 -10 -10 -10h-180q-6 0 -6 -6v-212q0 -6 6 -6h156q10 0 10 -10v-55
q0 -10 -10 -10h-156q-6 0 -6 -6v-219q0 -6 6 -6h180q10 0 10 -10v-55q0 -10 -10 -10h-257q-10 0 -10 10v660z" />
      <glyph d="M60 670q0 10 10 10h61q10 0 10 -10v-660q0 -10 -10 -10h-61q-10 0 -10 10v660zM84 763q-10 0 -19 10l-93 105q-3 4 -1.5 7t6.5 3h58q7 0 10 -2.5t7 -7.5l76 -105q3 -4 1.5 -7t-6.5 -3h-39z" />
      <glyph d="M60 670q0 10 10 10h61q10 0 10 -10v-660q0 -10 -10 -10h-61q-10 0 -10 10v660zM82 763q-5 0 -7 3t1 7l77 105q4 5 7 7.5t9 2.5h58q5 0 6.5 -3t-1.5 -7l-93 -105q-9 -10 -19 -10h-38z" />
      <glyph d="M60 670q0 10 10 10h61q10 0 10 -10v-660q0 -10 -10 -10h-61q-10 0 -10 10v660zM172 752q-10 0 -17 10l-52 71h-2l-52 -71q-7 -10 -17 -10h-42q-5 0 -6.5 2.5t1.5 7.5l82 123q6 10 17 10h36q11 0 17 -10l82 -123q3 -5 1.5 -7.5t-6.5 -2.5h-42z" />
      <glyph d="M60 670q0 10 10 10h61q10 0 10 -10v-660q0 -10 -10 -10h-61q-10 0 -10 10v660zM149 777q-10 0 -10 10v72q0 10 10 10h51q10 0 10 -10v-72q0 -10 -10 -10h-51zM4 777q-10 0 -10 10v72q0 10 10 10h51q10 0 10 -10v-72q0 -10 -10 -10h-51z" />
      <glyph d="M70 0q-10 0 -10 10v296q0 6 -6 6h-29q-10 0 -10 10v44q0 10 10 10h29q6 0 6 6v288q0 10 10 10h141q65 0 102.5 -26.5t54.5 -79.5q4 -14 7.5 -31t5 -43t2.5 -64.5t1 -95.5t-1 -95.5t-2.5 -64.5t-5 -43t-7.5 -31q-17 -53 -54.5 -79.5t-102.5 -26.5h-141zM203 75q35 0 55 14
t31 44q3 10 5.5 24t4 37t2.5 58t1 88t-1 88t-2.5 58t-4 36.5t-5.5 24.5q-11 30 -31 44t-55 14h-56q-6 0 -6 -6v-217q0 -6 6 -6h65q10 0 10 -10v-44q0 -10 -10 -10h-65q-6 0 -6 -6v-225q0 -6 6 -6h56z" />
      <glyph d="M266 773q-15 0 -26.5 5.5t-22.5 13.5t-18.5 12t-16.5 4q-14 0 -23.5 -7t-20.5 -20q-4 -4 -8 -3t-4 6v47q0 9 9 18q9 10 20.5 17t27.5 7q15 0 26 -5.5t22 -13.5t18.5 -12.5t17.5 -4.5q14 0 23.5 7.5t20.5 20.5q3 4 7 2.5t4 -6.5v-47q0 -5 -1.5 -8.5t-6.5 -8.5
q-9 -11 -20.5 -17.5t-27.5 -6.5zM60 670q0 10 10 10h75q12 0 15 -10l152 -510h4v510q0 10 10 10h53q10 0 10 -10v-660q0 -10 -10 -10h-71q-12 0 -15 10l-155 510h-5v-510q0 -10 -10 -10h-53q-10 0 -10 10v660z" />
      <glyph d="M200 763q-10 0 -19 10l-93 105q-3 4 -1.5 7t6.5 3h58q7 0 10 -2.5t7 -7.5l76 -105q3 -4 1.5 -7t-6.5 -3h-39zM211 -9q-58 0 -95.5 26t-53.5 75q-4 11 -6.5 24t-4 38.5t-2 69.5t-0.5 116t0.5 116t2 69.5t4 38.5t6.5 24q16 49 53.5 75t95.5 26t96 -26t53 -75q4 -11 6.5 -24
t4 -38.5t2 -69.5t0.5 -116t-0.5 -116t-2 -69.5t-4 -38.5t-6.5 -24q-15 -49 -53 -75t-96 -26zM211 67q27 0 45.5 12.5t26.5 35.5q2 7 3.5 16.5t2.5 32t1.5 64t0.5 112.5t-0.5 112.5t-1.5 64t-2.5 31.5t-3.5 17q-8 23 -26.5 35.5t-45.5 12.5q-56 0 -71 -48q-3 -8 -4.5 -17
t-2.5 -31.5t-1.5 -64t-0.5 -112.5t0.5 -112.5t1.5 -64t2.5 -32t4.5 -16.5q15 -48 71 -48z" />
      <glyph d="M186 763q-5 0 -7 3t1 7l77 105q4 5 7 7.5t9 2.5h58q5 0 6.5 -3t-1.5 -7l-93 -105q-9 -10 -19 -10h-38zM211 -9q-58 0 -95.5 26t-53.5 75q-4 11 -6.5 24t-4 38.5t-2 69.5t-0.5 116t0.5 116t2 69.5t4 38.5t6.5 24q16 49 53.5 75t95.5 26t96 -26t53 -75q4 -11 6.5 -24
t4 -38.5t2 -69.5t0.5 -116t-0.5 -116t-2 -69.5t-4 -38.5t-6.5 -24q-15 -49 -53 -75t-96 -26zM211 67q27 0 45.5 12.5t26.5 35.5q2 7 3.5 16.5t2.5 32t1.5 64t0.5 112.5t-0.5 112.5t-1.5 64t-2.5 31.5t-3.5 17q-8 23 -26.5 35.5t-45.5 12.5q-56 0 -71 -48q-3 -8 -4.5 -17
t-2.5 -31.5t-1.5 -64t-0.5 -112.5t0.5 -112.5t1.5 -64t2.5 -32t4.5 -16.5q15 -48 71 -48z" />
      <glyph d="M211 -9q-58 0 -95.5 26t-53.5 75q-4 11 -6.5 24t-4 38.5t-2 69.5t-0.5 116t0.5 116t2 69.5t4 38.5t6.5 24q16 49 53.5 75t95.5 26t96 -26t53 -75q4 -11 6.5 -24t4 -38.5t2 -69.5t0.5 -116t-0.5 -116t-2 -69.5t-4 -38.5t-6.5 -24q-15 -49 -53 -75t-96 -26zM211 67
q27 0 45.5 12.5t26.5 35.5q2 7 3.5 16.5t2.5 32t1.5 64t0.5 112.5t-0.5 112.5t-1.5 64t-2.5 31.5t-3.5 17q-8 23 -26.5 35.5t-45.5 12.5q-56 0 -71 -48q-3 -8 -4.5 -17t-2.5 -31.5t-1.5 -64t-0.5 -112.5t0.5 -112.5t1.5 -64t2.5 -32t4.5 -16.5q15 -48 71 -48zM281 752
q-10 0 -17 10l-52 71h-2l-52 -71q-7 -10 -17 -10h-42q-5 0 -6.5 2.5t1.5 7.5l82 123q6 10 17 10h36q11 0 17 -10l82 -123q3 -5 1.5 -7.5t-6.5 -2.5h-42z" />
      <glyph d="M252 773q-15 0 -26.5 5.5t-22.5 13.5t-18.5 12t-16.5 4q-14 0 -23.5 -7t-20.5 -20q-4 -4 -8 -3t-4 6v47q0 9 9 18q9 10 20.5 17t27.5 7q15 0 26 -5.5t22 -13.5t18.5 -12.5t17.5 -4.5q14 0 23.5 7.5t20.5 20.5q3 4 7 2.5t4 -6.5v-47q0 -5 -1.5 -8.5t-6.5 -8.5
q-9 -11 -20.5 -17.5t-27.5 -6.5zM211 -9q-58 0 -95.5 26t-53.5 75q-4 11 -6.5 24t-4 38.5t-2 69.5t-0.5 116t0.5 116t2 69.5t4 38.5t6.5 24q16 49 53.5 75t95.5 26t96 -26t53 -75q4 -11 6.5 -24t4 -38.5t2 -69.5t0.5 -116t-0.5 -116t-2 -69.5t-4 -38.5t-6.5 -24
q-15 -49 -53 -75t-96 -26zM211 67q27 0 45.5 12.5t26.5 35.5q2 7 3.5 16.5t2.5 32t1.5 64t0.5 112.5t-0.5 112.5t-1.5 64t-2.5 31.5t-3.5 17q-8 23 -26.5 35.5t-45.5 12.5q-56 0 -71 -48q-3 -8 -4.5 -17t-2.5 -31.5t-1.5 -64t-0.5 -112.5t0.5 -112.5t1.5 -64t2.5 -32
t4.5 -16.5q15 -48 71 -48z" />
      <glyph d="M258 777q-10 0 -10 10v72q0 10 10 10h51q10 0 10 -10v-72q0 -10 -10 -10h-51zM113 777q-10 0 -10 10v72q0 10 10 10h51q10 0 10 -10v-72q0 -10 -10 -10h-51zM211 -9q-58 0 -95.5 26t-53.5 75q-4 11 -6.5 24t-4 38.5t-2 69.5t-0.5 116t0.5 116t2 69.5t4 38.5t6.5 24
q16 49 53.5 75t95.5 26t96 -26t53 -75q4 -11 6.5 -24t4 -38.5t2 -69.5t0.5 -116t-0.5 -116t-2 -69.5t-4 -38.5t-6.5 -24q-15 -49 -53 -75t-96 -26zM211 67q27 0 45.5 12.5t26.5 35.5q2 7 3.5 16.5t2.5 32t1.5 64t0.5 112.5t-0.5 112.5t-1.5 64t-2.5 31.5t-3.5 17
q-8 23 -26.5 35.5t-45.5 12.5q-56 0 -71 -48q-3 -8 -4.5 -17t-2.5 -31.5t-1.5 -64t-0.5 -112.5t0.5 -112.5t1.5 -64t2.5 -32t4.5 -16.5q15 -48 71 -48z" />
      <glyph d="M293 143q-7 -7 -14 0l-82 82q-4 3 -8 0l-83 -82q-7 -7 -14 0l-32 33q-7 7 0 14l82 82q4 4 0 8l-82 82q-7 7 0 14l32 33q7 7 14 0l83 -82q4 -3 8 0l82 82q7 7 14 0l32 -33q9 -7 0 -14l-82 -82q-3 -4 0 -8l82 -82q9 -7 0 -14z" />
      <glyph d="M52 -30q-10 0 -7 10l32 78q-9 16 -15 34q-4 11 -6.5 24t-4 38.5t-2 69.5t-0.5 116t0.5 116t2 69.5t4 38.5t6.5 24q16 49 53.5 75t95.5 26q64 0 106 -34l19 46q4 9 13 9h21q10 0 7 -10l-32 -78q8 -14 15 -34q4 -11 6.5 -24t4 -38.5t2 -69.5t0.5 -116t-0.5 -116t-2 -69.5
t-4 -38.5t-6.5 -24q-15 -49 -53 -75t-96 -26q-66 0 -106 34l-19 -46q-4 -9 -13 -9h-21zM131 340v-94t1 -60l148 386q-19 41 -69 41q-56 0 -71 -48q-3 -8 -4.5 -17t-2.5 -31.5t-1.5 -64t-0.5 -112.5zM211 67q55 0 72 48q2 7 3.5 16.5t2.5 32t1.5 64t0.5 112.5v93.5t-1 60.5
l-148 -386q18 -41 69 -41z" />
      <glyph d="M208 763q-10 0 -19 10l-93 105q-3 4 -1.5 7t6.5 3h58q7 0 10 -2.5t7 -7.5l76 -105q3 -4 1.5 -7t-6.5 -3h-39zM218 -9q-73 0 -116 44t-43 132v503q0 10 10 10h61q10 0 10 -10v-513q0 -45 21 -67.5t57 -22.5t57 22.5t21 67.5v513q0 10 10 10h61q10 0 10 -10v-503
q0 -88 -43 -132t-116 -44z" />
      <glyph d="M194 763q-5 0 -7 3t1 7l77 105q4 5 7 7.5t9 2.5h58q5 0 6.5 -3t-1.5 -7l-93 -105q-9 -10 -19 -10h-38zM218 -9q-73 0 -116 44t-43 132v503q0 10 10 10h61q10 0 10 -10v-513q0 -45 21 -67.5t57 -22.5t57 22.5t21 67.5v513q0 10 10 10h61q10 0 10 -10v-503q0 -88 -43 -132
t-116 -44z" />
      <glyph d="M218 -9q-73 0 -116 44t-43 132v503q0 10 10 10h61q10 0 10 -10v-513q0 -45 21 -67.5t57 -22.5t57 22.5t21 67.5v513q0 10 10 10h61q10 0 10 -10v-503q0 -88 -43 -132t-116 -44zM288 752q-10 0 -17 10l-52 71h-2l-52 -71q-7 -10 -17 -10h-42q-5 0 -6.5 2.5t1.5 7.5l82 123
q6 10 17 10h36q11 0 17 -10l82 -123q3 -5 1.5 -7.5t-6.5 -2.5h-42z" />
      <glyph d="M265 777q-10 0 -10 10v72q0 10 10 10h51q10 0 10 -10v-72q0 -10 -10 -10h-51zM120 777q-10 0 -10 10v72q0 10 10 10h51q10 0 10 -10v-72q0 -10 -10 -10h-51zM218 -9q-73 0 -116 44t-43 132v503q0 10 10 10h61q10 0 10 -10v-513q0 -45 21 -67.5t57 -22.5t57 22.5t21 67.5
v513q0 10 10 10h61q10 0 10 -10v-503q0 -88 -43 -132t-116 -44z" />
      <glyph d="M157 0q-10 0 -10 10v271l-131 389q-3 10 7 10h63q9 0 12 -10l89 -285h3l89 285q3 10 11 10h62q10 0 7 -10l-131 -389v-271q0 -10 -10 -10h-61zM161 763q-5 0 -7 3t1 7l77 105q4 5 7 7.5t9 2.5h58q5 0 6.5 -3t-1.5 -7l-93 -105q-9 -10 -19 -10h-38z" />
      <glyph d="M147 146q-6 0 -6 -6v-130q0 -10 -10 -10h-61q-10 0 -10 10v660q0 10 10 10h61q10 0 10 -10v-110q0 -6 6 -6h42q45 0 79.5 -11t57.5 -35t35 -63t12 -95q0 -110 -47.5 -157t-136.5 -47h-42zM189 221q56 0 79.5 28t23.5 101q0 72 -23.5 100.5t-79.5 28.5h-42q-6 0 -6 -6
v-246q0 -6 6 -6h42z" />
      <glyph d="M213 -3q-10 0 -10 10v52q0 10 10 10h7q39 0 50 33q1 4 2.5 10.5t2.5 19t1.5 33t0.5 53.5t-0.5 53t-1.5 32.5t-2.5 18.5t-2.5 11q-11 33 -50 33h-7q-10 0 -10 10v53q0 10 10 10h5q39 0 49 29q2 8 3.5 20.5t1.5 43.5q0 84 -68 84q-33 0 -51 -20.5t-18 -63.5v-522
q0 -10 -10 -10h-57q-10 0 -10 10v514q0 78 35 121.5t110 43.5q70 0 108.5 -39.5t38.5 -112.5q0 -29 -2.5 -48.5t-9 -34t-17.5 -25t-27 -19.5v-2q17 -9 30 -22.5t21 -36.5q3 -8 4.5 -17t2.5 -23.5t1.5 -36t0.5 -54.5q0 -36 -0.5 -61t-2 -41.5t-3.5 -27t-5 -19.5
q-12 -39 -40.5 -55.5t-75.5 -16.5h-14z" />
      <glyph d="M254 0q-10 0 -10 10v41h-1q-10 -28 -34 -44t-56 -16q-21 0 -41.5 7t-36.5 23.5t-25.5 44t-9.5 67.5t11 68.5t29.5 46t44.5 25.5t56 8h57q6 0 6 6v39q0 48 -16 69.5t-55 21.5q-26 0 -45 -9t-36 -23q-11 -7 -16 4l-19 39q-5 9 2 16q21 20 53 32t70 12q72 0 104 -36t32 -122
v-320q0 -10 -10 -10h-54zM174 57q31 0 50.5 24t19.5 63v66q0 6 -6 6h-45q-43 0 -61 -20.5t-18 -60.5q0 -39 15.5 -58.5t44.5 -19.5zM174 557q-10 0 -17 10l-87 123q-2 4 -1 7t6 3h59q10 0 16 -10l69 -123q5 -10 -5 -10h-40z" />
      <glyph d="M254 0q-10 0 -10 10v41h-1q-10 -28 -34 -44t-56 -16q-21 0 -41.5 7t-36.5 23.5t-25.5 44t-9.5 67.5t11 68.5t29.5 46t44.5 25.5t56 8h57q6 0 6 6v39q0 48 -16 69.5t-55 21.5q-26 0 -45 -9t-36 -23q-11 -7 -16 4l-19 39q-5 9 2 16q21 20 53 32t70 12q72 0 104 -36t32 -122
v-320q0 -10 -10 -10h-54zM174 57q31 0 50.5 24t19.5 63v66q0 6 -6 6h-45q-43 0 -61 -20.5t-18 -60.5q0 -39 15.5 -58.5t44.5 -19.5zM150 557q-10 0 -5 10l69 123q6 10 16 10h59q5 0 6 -3t-1 -7l-87 -123q-5 -6 -8 -8t-9 -2h-40z" />
      <glyph d="M254 0q-10 0 -10 10v41h-1q-10 -28 -34 -44t-56 -16q-21 0 -41.5 7t-36.5 23.5t-25.5 44t-9.5 67.5t11 68.5t29.5 46t44.5 25.5t56 8h57q6 0 6 6v39q0 48 -16 69.5t-55 21.5q-26 0 -45 -9t-36 -23q-11 -7 -16 4l-19 39q-5 9 2 16q21 20 53 32t70 12q72 0 104 -36t32 -122
v-320q0 -10 -10 -10h-54zM174 57q31 0 50.5 24t19.5 63v66q0 6 -6 6h-45q-43 0 -61 -20.5t-18 -60.5q0 -39 15.5 -58.5t44.5 -19.5zM257 557q-10 0 -17 10l-52 71h-2l-52 -71q-7 -10 -17 -10h-42q-5 0 -6.5 2.5t1.5 7.5l82 123q6 10 17 10h36q11 0 17 -10l82 -123
q3 -5 1.5 -7.5t-6.5 -2.5h-42z" />
      <glyph d="M254 0q-10 0 -10 10v41h-1q-10 -28 -34 -44t-56 -16q-21 0 -41.5 7t-36.5 23.5t-25.5 44t-9.5 67.5t11 68.5t29.5 46t44.5 25.5t56 8h57q6 0 6 6v39q0 48 -16 69.5t-55 21.5q-26 0 -45 -9t-36 -23q-11 -7 -16 4l-19 39q-5 9 2 16q21 20 53 32t70 12q72 0 104 -36t32 -122
v-320q0 -10 -10 -10h-54zM174 57q31 0 50.5 24t19.5 63v66q0 6 -6 6h-45q-43 0 -61 -20.5t-18 -60.5q0 -39 15.5 -58.5t44.5 -19.5zM229 581q-15 0 -26.5 5.5t-22.5 13.5t-18.5 12t-16.5 4q-14 0 -23.5 -7t-20.5 -20q-4 -4 -8 -3t-4 6v47q0 9 9 18q9 10 20.5 17t27.5 7
q15 0 26 -5.5t22 -13.5t18.5 -12.5t17.5 -4.5q14 0 23.5 7.5t20.5 20.5q3 4 7 2.5t4 -6.5v-47q0 -5 -1.5 -8.5t-6.5 -8.5q-9 -11 -20.5 -17.5t-27.5 -6.5z" />
      <glyph d="M254 0q-10 0 -10 10v41h-1q-10 -28 -34 -44t-56 -16q-21 0 -41.5 7t-36.5 23.5t-25.5 44t-9.5 67.5t11 68.5t29.5 46t44.5 25.5t56 8h57q6 0 6 6v39q0 48 -16 69.5t-55 21.5q-26 0 -45 -9t-36 -23q-11 -7 -16 4l-19 39q-5 9 2 16q21 20 53 32t70 12q72 0 104 -36t32 -122
v-320q0 -10 -10 -10h-54zM174 57q31 0 50.5 24t19.5 63v66q0 6 -6 6h-45q-43 0 -61 -20.5t-18 -60.5q0 -39 15.5 -58.5t44.5 -19.5zM234 588q-10 0 -10 10v72q0 10 10 10h51q10 0 10 -10v-72q0 -10 -10 -10h-51zM89 588q-10 0 -10 10v72q0 10 10 10h51q10 0 10 -10v-72
q0 -10 -10 -10h-51z" />
      <glyph d="M254 0q-10 0 -10 10v41h-1q-10 -28 -34 -44t-56 -16q-21 0 -41.5 7t-36.5 23.5t-25.5 44t-9.5 67.5t11 68.5t29.5 46t44.5 25.5t56 8h57q6 0 6 6v39q0 48 -16 69.5t-55 21.5q-26 0 -45 -9t-36 -23q-11 -7 -16 4l-19 39q-5 9 2 16q21 20 53 32t70 12q72 0 104 -36t32 -122
v-320q0 -10 -10 -10h-54zM174 57q31 0 50.5 24t19.5 63v66q0 6 -6 6h-45q-43 0 -61 -20.5t-18 -60.5q0 -39 15.5 -58.5t44.5 -19.5zM187 546q-38 0 -62 24.5t-24 61.5q0 38 24 62.5t62 24.5q37 0 61.5 -24.5t24.5 -62.5q0 -37 -24.5 -61.5t-61.5 -24.5zM187 583
q20 0 33.5 14t13.5 35t-13.5 35t-33.5 14t-33.5 -14t-13.5 -35t13.5 -35t33.5 -14z" />
      <glyph d="M173 417q-26 0 -45 -9t-36 -23q-11 -7 -16 4l-19 39q-5 9 2 16q21 20 53 32t70 12q73 0 103 -42h1q16 21 40.5 31.5t55.5 10.5q51 0 83 -23t46 -66q3 -8 5 -18.5t3.5 -29.5t2 -48.5t0.5 -76.5q0 -10 -10 -10h-188q-6 0 -6 -6q0 -29 0.5 -47.5t1.5 -29.5t2 -17.5t3 -11.5
q15 -41 56 -41q49 0 64 54q3 10 12 8l53 -11q9 -1 7 -12q-10 -52 -46 -81.5t-91 -29.5q-39 0 -68.5 15.5t-46.5 47.5h-1q-22 -35 -48.5 -49t-62.5 -14q-21 0 -41.5 7.5t-36 24t-25.5 43.5t-10 67t11 68.5t29.5 46t44.5 25.5t56 8h57q6 0 6 6v39q0 48 -16 69.5t-55 21.5z
M439 281q6 0 6 6q0 23 -0.5 38.5t-1.5 25.5t-2.5 16t-2.5 11q-13 40 -56 40q-44 0 -57 -40q-2 -5 -3 -11t-2 -16t-1.5 -25.5t-0.5 -38.5q0 -6 6 -6h115zM174 57q31 0 50.5 24t19.5 63v66q0 6 -6 6h-45q-43 0 -61 -20.5t-18 -60.5q0 -39 15.5 -58.5t44.5 -19.5z" />
      <glyph d="M148 -6q-69 13 -92 86q-3 10 -5.5 20.5t-3.5 27t-1.5 43t-0.5 69.5t0.5 69.5t1.5 43t3.5 26t5.5 20.5q29 89 128 89q57 0 93 -33t41 -90q0 -9 -7 -11l-54 -10q-10 -3 -12 8q-5 34 -20.5 49t-40.5 15q-43 0 -56 -39q-2 -7 -3.5 -14t-2 -21t-0.5 -38v-64v-65t0.5 -38t2 -21
t3.5 -14q13 -39 56 -39q25 0 40.5 15t20.5 49q2 11 12 8l54 -10q7 -2 7 -11q-5 -51 -33 -82.5t-75 -38.5l-45 -135q-4 -10 -16 -10h-48q-10 0 -7 10z" />
      <glyph d="M184 -9q-50 0 -82 23t-46 67q-3 8 -5 18t-3.5 27.5t-2 44.5t-0.5 69t0.5 68.5t2 44t3.5 27.5t5 19q14 43 46.5 66t83.5 23t83 -23t46 -66q3 -8 5 -18.5t3.5 -29.5t2 -48.5t0.5 -76.5q0 -10 -10 -10h-188q-6 0 -6 -6q0 -29 0.5 -47.5t1.5 -29.5t2 -17.5t3 -11.5
q15 -41 56 -41q49 0 64 54q3 10 12 8l53 -11q9 -1 7 -12q-10 -52 -46 -81.5t-91 -29.5zM243 281q6 0 6 6q0 23 -0.5 38.5t-1.5 25.5t-2.5 16t-2.5 11q-13 40 -56 40q-44 0 -57 -40q-2 -5 -3 -11t-2 -16t-1.5 -25.5t-0.5 -38.5q0 -6 6 -6h115zM168 557q-10 0 -17 10l-87 123
q-2 4 -1 7t6 3h59q10 0 16 -10l69 -123q5 -10 -5 -10h-40z" />
      <glyph d="M161 557q-10 0 -5 10l69 123q6 10 16 10h59q5 0 6 -3t-1 -7l-87 -123q-5 -6 -8 -8t-9 -2h-40zM184 -9q-50 0 -82 23t-46 67q-3 8 -5 18t-3.5 27.5t-2 44.5t-0.5 69t0.5 68.5t2 44t3.5 27.5t5 19q14 43 46.5 66t83.5 23t83 -23t46 -66q3 -8 5 -18.5t3.5 -29.5t2 -48.5
t0.5 -76.5q0 -10 -10 -10h-188q-6 0 -6 -6q0 -29 0.5 -47.5t1.5 -29.5t2 -17.5t3 -11.5q15 -41 56 -41q49 0 64 54q3 10 12 8l53 -11q9 -1 7 -12q-10 -52 -46 -81.5t-91 -29.5zM243 281q6 0 6 6q0 23 -0.5 38.5t-1.5 25.5t-2.5 16t-2.5 11q-13 40 -56 40q-44 0 -57 -40
q-2 -5 -3 -11t-2 -16t-1.5 -25.5t-0.5 -38.5q0 -6 6 -6h115z" />
      <glyph d="M256 557q-10 0 -17 10l-52 71h-2l-52 -71q-7 -10 -17 -10h-42q-5 0 -6.5 2.5t1.5 7.5l82 123q6 10 17 10h36q11 0 17 -10l82 -123q3 -5 1.5 -7.5t-6.5 -2.5h-42zM184 -9q-50 0 -82 23t-46 67q-3 8 -5 18t-3.5 27.5t-2 44.5t-0.5 69t0.5 68.5t2 44t3.5 27.5t5 19
q14 43 46.5 66t83.5 23t83 -23t46 -66q3 -8 5 -18.5t3.5 -29.5t2 -48.5t0.5 -76.5q0 -10 -10 -10h-188q-6 0 -6 -6q0 -29 0.5 -47.5t1.5 -29.5t2 -17.5t3 -11.5q15 -41 56 -41q49 0 64 54q3 10 12 8l53 -11q9 -1 7 -12q-10 -52 -46 -81.5t-91 -29.5zM243 281q6 0 6 6
q0 23 -0.5 38.5t-1.5 25.5t-2.5 16t-2.5 11q-13 40 -56 40q-44 0 -57 -40q-2 -5 -3 -11t-2 -16t-1.5 -25.5t-0.5 -38.5q0 -6 6 -6h115z" />
      <glyph d="M233 588q-10 0 -10 10v72q0 10 10 10h51q10 0 10 -10v-72q0 -10 -10 -10h-51zM88 588q-10 0 -10 10v72q0 10 10 10h51q10 0 10 -10v-72q0 -10 -10 -10h-51zM184 -9q-50 0 -82 23t-46 67q-3 8 -5 18t-3.5 27.5t-2 44.5t-0.5 69t0.5 68.5t2 44t3.5 27.5t5 19q14 43 46.5 66
t83.5 23t83 -23t46 -66q3 -8 5 -18.5t3.5 -29.5t2 -48.5t0.5 -76.5q0 -10 -10 -10h-188q-6 0 -6 -6q0 -29 0.5 -47.5t1.5 -29.5t2 -17.5t3 -11.5q15 -41 56 -41q49 0 64 54q3 10 12 8l53 -11q9 -1 7 -12q-10 -52 -46 -81.5t-91 -29.5zM243 281q6 0 6 6q0 23 -0.5 38.5
t-1.5 25.5t-2.5 16t-2.5 11q-13 40 -56 40q-44 0 -57 -40q-2 -5 -3 -11t-2 -16t-1.5 -25.5t-0.5 -38.5q0 -6 6 -6h115z" />
      <glyph d="M68 0q-10 0 -10 10v459q0 10 10 10h57q10 0 10 -10v-459q0 -10 -10 -10h-57zM80 557q-10 0 -17 10l-87 123q-2 4 -1 7t6 3h59q10 0 16 -10l69 -123q5 -10 -5 -10h-40z" />
      <glyph d="M79 557q-10 0 -5 10l69 123q6 10 16 10h59q5 0 6 -3t-1 -7l-87 -123q-5 -6 -8 -8t-9 -2h-40zM68 0q-10 0 -10 10v459q0 10 10 10h57q10 0 10 -10v-459q0 -10 -10 -10h-57z" />
      <glyph d="M168 557q-10 0 -17 10l-52 71h-2l-52 -71q-7 -10 -17 -10h-42q-5 0 -6.5 2.5t1.5 7.5l82 123q6 10 17 10h36q11 0 17 -10l82 -123q3 -5 1.5 -7.5t-6.5 -2.5h-42zM68 0q-10 0 -10 10v459q0 10 10 10h57q10 0 10 -10v-459q0 -10 -10 -10h-57z" />
      <glyph d="M145 588q-10 0 -10 10v72q0 10 10 10h51q10 0 10 -10v-72q0 -10 -10 -10h-51zM0 588q-10 0 -10 10v72q0 10 10 10h51q10 0 10 -10v-72q0 -10 -10 -10h-51zM68 0q-10 0 -10 10v459q0 10 10 10h57q10 0 10 -10v-459q0 -10 -10 -10h-57z" />
      <glyph d="M242 563l28 -53q19 -36 30.5 -64.5t18 -58.5t8.5 -66t2 -88q0 -38 -0.5 -62.5t-1.5 -41t-3 -26.5t-5 -20q-14 -45 -48 -68.5t-84 -23.5t-84 23.5t-48 68.5q-3 10 -5 20t-3.5 26t-2 39.5t-0.5 60.5t0.5 62t2 41.5t4 27.5t5.5 21q14 42 43 64t72 22q15 0 28 -3t20 -8h1
l-45 86l-68 -22q-8 -3 -11 6l-12 35q-3 9 7 12l58 19l-41 78q-5 10 5 10h59q8 0 14 -10l29 -57l63 21q8 3 11 -6l12 -36q3 -9 -7 -12zM187 63q45 0 59 42q2 6 3 13t2 20t1 34.5v56.5t-0.5 56.5t-1 34.5t-2 20.5t-3.5 13.5q-14 42 -58 42q-45 0 -59 -42q-2 -6 -3 -13t-2 -20
t-1 -34.5v-57.5v-56.5t1 -34.5t2 -20t3 -13q14 -42 59 -42z" />
      <glyph d="M272 0q-10 0 -10 10v319q0 87 -63 87q-30 0 -47 -21t-17 -66v-319q0 -10 -10 -10h-57q-10 0 -10 10v459q0 10 10 10h57q10 0 10 -10v-38h1q11 24 33.5 40.5t57.5 16.5q56 0 84 -35.5t28 -111.5v-331q0 -10 -10 -10h-57zM238 581q-15 0 -26.5 5.5t-22.5 13.5t-18.5 12
t-16.5 4q-14 0 -23.5 -7t-20.5 -20q-4 -4 -8 -3t-4 6v47q0 9 9 18q9 10 20.5 17t27.5 7q15 0 26 -5.5t22 -13.5t18.5 -12.5t17.5 -4.5q14 0 23.5 7.5t20.5 20.5q3 4 7 2.5t4 -6.5v-47q0 -5 -1.5 -8.5t-6.5 -8.5q-9 -11 -20.5 -17.5t-27.5 -6.5z" />
      <glyph d="M187 -9q-50 0 -84 23.5t-48 68.5q-3 10 -5 20.5t-3 27t-1.5 42.5t-0.5 67t0.5 67t1.5 42.5t3 27t5 20.5q14 44 48 67.5t84 23.5t84 -23.5t48 -67.5q3 -10 5 -20.5t3 -27t1.5 -42.5t0.5 -67t-0.5 -67t-1.5 -42.5t-3 -27t-5 -20.5q-14 -45 -48 -68.5t-84 -23.5zM187 63
q45 0 59 42q2 6 3 13.5t2 21t1 37.5v63v62.5t-1 37t-2 21t-3 13.5q-14 42 -59 42t-59 -42q-2 -6 -3 -13.5t-2 -21t-1 -37v-62.5v-63t1 -37.5t2 -21t3 -13.5q14 -42 59 -42zM175 557q-10 0 -17 10l-87 123q-2 4 -1 7t6 3h59q10 0 16 -10l69 -123q5 -10 -5 -10h-40z" />
      <glyph d="M160 557q-10 0 -5 10l69 123q6 10 16 10h59q5 0 6 -3t-1 -7l-87 -123q-5 -6 -8 -8t-9 -2h-40zM187 -9q-50 0 -84 23.5t-48 68.5q-3 10 -5 20.5t-3 27t-1.5 42.5t-0.5 67t0.5 67t1.5 42.5t3 27t5 20.5q14 44 48 67.5t84 23.5t84 -23.5t48 -67.5q3 -10 5 -20.5t3 -27
t1.5 -42.5t0.5 -67t-0.5 -67t-1.5 -42.5t-3 -27t-5 -20.5q-14 -45 -48 -68.5t-84 -23.5zM187 63q45 0 59 42q2 6 3 13.5t2 21t1 37.5v63v62.5t-1 37t-2 21t-3 13.5q-14 42 -59 42t-59 -42q-2 -6 -3 -13.5t-2 -21t-1 -37v-62.5v-63t1 -37.5t2 -21t3 -13.5q14 -42 59 -42z" />
      <glyph d="M258 557q-10 0 -17 10l-52 71h-2l-52 -71q-7 -10 -17 -10h-42q-5 0 -6.5 2.5t1.5 7.5l82 123q6 10 17 10h36q11 0 17 -10l82 -123q3 -5 1.5 -7.5t-6.5 -2.5h-42zM187 -9q-50 0 -84 23.5t-48 68.5q-3 10 -5 20.5t-3 27t-1.5 42.5t-0.5 67t0.5 67t1.5 42.5t3 27t5 20.5
q14 44 48 67.5t84 23.5t84 -23.5t48 -67.5q3 -10 5 -20.5t3 -27t1.5 -42.5t0.5 -67t-0.5 -67t-1.5 -42.5t-3 -27t-5 -20.5q-14 -45 -48 -68.5t-84 -23.5zM187 63q45 0 59 42q2 6 3 13.5t2 21t1 37.5v63v62.5t-1 37t-2 21t-3 13.5q-14 42 -59 42t-59 -42q-2 -6 -3 -13.5
t-2 -21t-1 -37v-62.5v-63t1 -37.5t2 -21t3 -13.5q14 -42 59 -42z" />
      <glyph d="M187 -9q-50 0 -84 23.5t-48 68.5q-3 10 -5 20.5t-3 27t-1.5 42.5t-0.5 67t0.5 67t1.5 42.5t3 27t5 20.5q14 44 48 67.5t84 23.5t84 -23.5t48 -67.5q3 -10 5 -20.5t3 -27t1.5 -42.5t0.5 -67t-0.5 -67t-1.5 -42.5t-3 -27t-5 -20.5q-14 -45 -48 -68.5t-84 -23.5zM187 63
q45 0 59 42q2 6 3 13.5t2 21t1 37.5v63v62.5t-1 37t-2 21t-3 13.5q-14 42 -59 42t-59 -42q-2 -6 -3 -13.5t-2 -21t-1 -37v-62.5v-63t1 -37.5t2 -21t3 -13.5q14 -42 59 -42zM230 581q-15 0 -26.5 5.5t-22.5 13.5t-18.5 12t-16.5 4q-14 0 -23.5 -7t-20.5 -20q-4 -4 -8 -3t-4 6
v47q0 9 9 18q9 10 20.5 17t27.5 7q15 0 26 -5.5t22 -13.5t18.5 -12.5t17.5 -4.5q14 0 23.5 7.5t20.5 20.5q3 4 7 2.5t4 -6.5v-47q0 -5 -1.5 -8.5t-6.5 -8.5q-9 -11 -20.5 -17.5t-27.5 -6.5z" />
      <glyph d="M235 588q-10 0 -10 10v72q0 10 10 10h51q10 0 10 -10v-72q0 -10 -10 -10h-51zM90 588q-10 0 -10 10v72q0 10 10 10h51q10 0 10 -10v-72q0 -10 -10 -10h-51zM187 -9q-50 0 -84 23.5t-48 68.5q-3 10 -5 20.5t-3 27t-1.5 42.5t-0.5 67t0.5 67t1.5 42.5t3 27t5 20.5
q14 44 48 67.5t84 23.5t84 -23.5t48 -67.5q3 -10 5 -20.5t3 -27t1.5 -42.5t0.5 -67t-0.5 -67t-1.5 -42.5t-3 -27t-5 -20.5q-14 -45 -48 -68.5t-84 -23.5zM187 63q45 0 59 42q2 6 3 13.5t2 21t1 37.5v63v62.5t-1 37t-2 21t-3 13.5q-14 42 -59 42t-59 -42q-2 -6 -3 -13.5
t-2 -21t-1 -37v-62.5v-63t1 -37.5t2 -21t3 -13.5q14 -42 59 -42z" />
      <glyph d="M193 373q-23 0 -37.5 14.5t-14.5 37.5t14.5 38t37.5 15t37.5 -15t14.5 -38t-14.5 -37.5t-37.5 -14.5zM48 241q-10 0 -10 10v50q0 10 10 10h290q10 0 10 -10v-50q0 -10 -10 -10h-290zM193 74q-23 0 -37.5 15t-14.5 38t14.5 37.5t37.5 14.5t37.5 -14.5t14.5 -37.5
t-14.5 -38t-37.5 -15z" />
      <glyph d="M187 -9q-50 0 -86 25l-17 -36q-5 -10 -13 -10h-18q-11 0 -8 10l30 63q-7 8 -11.5 18.5t-8.5 21.5q-3 10 -5 20.5t-3 27t-1.5 42.5t-0.5 67t0.5 67t1.5 42.5t3 27t5 20.5q14 44 48 67.5t84 23.5t86 -25l17 36q4 10 13 10h18q5 0 7 -2.5t0 -7.5l-29 -63q13 -18 20 -39
q3 -10 5 -20.5t3 -27t1.5 -42.5t0.5 -67t-0.5 -67t-1.5 -42.5t-3 -27t-5 -20.5q-14 -45 -48 -68.5t-84 -23.5zM121 240v-65.5t1 -37.5l115 255q-17 25 -50 25q-44 0 -60 -42q-2 -6 -3 -13.5t-2 -21.5t-1 -37.5v-62.5zM187 62q45 0 59 43q2 6 3.5 13.5t2 21t1 37.5t0.5 63
v62.5t-1 37.5l-115 -254q18 -24 50 -24z" />
      <glyph d="M265 0q-10 0 -10 10v38h-1q-11 -24 -32.5 -40.5t-57.5 -16.5q-55 0 -82.5 35.5t-27.5 112.5v330q0 10 10 10h57q10 0 10 -10v-319q0 -87 62 -87q29 0 45.5 21.5t16.5 65.5v319q0 10 10 10h57q10 0 10 -10v-459q0 -10 -10 -10h-57zM181 557q-10 0 -17 10l-87 123
q-2 4 -1 7t6 3h59q10 0 16 -10l69 -123q5 -10 -5 -10h-40z" />
      <glyph d="M167 557q-10 0 -5 10l69 123q6 10 16 10h59q5 0 6 -3t-1 -7l-87 -123q-5 -6 -8 -8t-9 -2h-40zM265 0q-10 0 -10 10v38h-1q-11 -24 -32.5 -40.5t-57.5 -16.5q-55 0 -82.5 35.5t-27.5 112.5v330q0 10 10 10h57q10 0 10 -10v-319q0 -87 62 -87q29 0 45.5 21.5t16.5 65.5v319
q0 10 10 10h57q10 0 10 -10v-459q0 -10 -10 -10h-57z" />
      <glyph d="M265 557q-10 0 -17 10l-52 71h-2l-52 -71q-7 -10 -17 -10h-42q-5 0 -6.5 2.5t1.5 7.5l82 123q6 10 17 10h36q11 0 17 -10l82 -123q3 -5 1.5 -7.5t-6.5 -2.5h-42zM265 0q-10 0 -10 10v38h-1q-11 -24 -32.5 -40.5t-57.5 -16.5q-55 0 -82.5 35.5t-27.5 112.5v330q0 10 10 10
h57q10 0 10 -10v-319q0 -87 62 -87q29 0 45.5 21.5t16.5 65.5v319q0 10 10 10h57q10 0 10 -10v-459q0 -10 -10 -10h-57z" />
      <glyph d="M242 588q-10 0 -10 10v72q0 10 10 10h51q10 0 10 -10v-72q0 -10 -10 -10h-51zM97 588q-10 0 -10 10v72q0 10 10 10h51q10 0 10 -10v-72q0 -10 -10 -10h-51zM265 0q-10 0 -10 10v38h-1q-11 -24 -32.5 -40.5t-57.5 -16.5q-55 0 -82.5 35.5t-27.5 112.5v330q0 10 10 10h57
q10 0 10 -10v-319q0 -87 62 -87q29 0 45.5 21.5t16.5 65.5v319q0 10 10 10h57q10 0 10 -10v-459q0 -10 -10 -10h-57z" />
      <glyph d="M62 -180q-10 0 -10 10v53q0 10 10 10l12 1q21 1 32.5 12t19.5 43l17 66l-117 454q-2 10 8 10h60q8 0 10 -10l74 -327h2l74 327q2 10 11 10h58q10 0 7 -10l-131 -517q-10 -41 -21.5 -66.5t-26 -40t-33.5 -20t-45 -5.5h-11zM155 557q-10 0 -5 10l69 123q6 10 16 10h59
q5 0 6 -3t-1 -7l-87 -123q-5 -6 -8 -8t-9 -2h-40z" />
      <glyph d="M68 -180q-10 0 -10 10v840q0 10 10 10h57q10 0 10 -10v-240h1q10 25 31 41.5t60 16.5q79 0 104 -78q3 -10 5.5 -21.5t4 -29.5t2 -46.5t0.5 -72.5t-0.5 -72.5t-2 -47t-4 -30t-5.5 -21.5q-25 -78 -104 -78q-39 0 -60 17t-31 41h-1v-219q0 -10 -10 -10h-57zM201 63
q44 0 58 42q2 6 3.5 13.5t2 21t1 37.5t0.5 63t-0.5 62.5t-1 37t-2 21t-3.5 13.5q-14 42 -58 42q-23 0 -37.5 -11t-21.5 -31q-2 -6 -3.5 -13.5t-2 -21t-1 -37t-0.5 -62.5t0.5 -63t1 -37.5t2 -21t3.5 -13.5q7 -20 21.5 -31t37.5 -11z" />
      <glyph d="M62 -180q-10 0 -10 10v53q0 10 10 10l12 1q21 1 32.5 12t19.5 43l17 66l-117 454q-2 10 8 10h60q8 0 10 -10l74 -327h2l74 327q2 10 11 10h58q10 0 7 -10l-131 -517q-10 -41 -21.5 -66.5t-26 -40t-33.5 -20t-45 -5.5h-11zM226 588q-10 0 -10 10v72q0 10 10 10h51
q10 0 10 -10v-72q0 -10 -10 -10h-51zM81 588q-10 0 -10 10v72q0 10 10 10h51q10 0 10 -10v-72q0 -10 -10 -10h-51z" />
      <glyph />
      <glyph />
      <glyph d="M229 763q-10 0 -19 10l-93 105q-3 4 -1.5 7t6.5 3h58q7 0 10 -2.5t7 -7.5l76 -105q3 -4 1.5 -7t-6.5 -3h-39z" />
      <glyph d="M129 763q-5 0 -7 3t1 7l77 105q4 5 7 7.5t9 2.5h58q5 0 6.5 -3t-1.5 -7l-93 -105q-9 -10 -19 -10h-38z" />
      <glyph d="M265 752q-10 0 -17 10l-52 71h-2l-52 -71q-7 -10 -17 -10h-42q-5 0 -6.5 2.5t1.5 7.5l82 123q6 10 17 10h36q11 0 17 -10l82 -123q3 -5 1.5 -7.5t-6.5 -2.5h-42z" />
      <glyph d="M177 750q-11 0 -17 9l-82 124q-3 4 -1.5 7t6.5 3h42q10 0 17 -10l52 -72h2l52 72q7 10 17 10h42q5 0 6.5 -3t-1.5 -7l-82 -124q-6 -9 -17 -9h-36z" />
      <glyph d="M168 524q-9 0 -9 9v137q0 10 10 10h52q10 0 10 -10v-50q0 -8 -1 -12.5t-5 -10.5l-45 -66q-4 -7 -12 -7z" />
      <glyph d="M236 773q-15 0 -26.5 5.5t-22.5 13.5t-18.5 12t-16.5 4q-14 0 -23.5 -7t-20.5 -20q-4 -4 -8 -3t-4 6v47q0 9 9 18q9 10 20.5 17t27.5 7q15 0 26 -5.5t22 -13.5t18.5 -12.5t17.5 -4.5q14 0 23.5 7.5t20.5 20.5q3 4 7 2.5t4 -6.5v-47q0 -5 -1.5 -8.5t-6.5 -8.5
q-9 -11 -20.5 -17.5t-27.5 -6.5z" />
      <glyph d="M242 777q-10 0 -10 10v72q0 10 10 10h51q10 0 10 -10v-72q0 -10 -10 -10h-51zM97 777q-10 0 -10 10v72q0 10 10 10h51q10 0 10 -10v-72q0 -10 -10 -10h-51z" />
      <glyph d="M98 790q-10 0 -10 10v43q0 10 10 10h194q10 0 10 -10v-43q0 -10 -10 -10h-194z" />
      <glyph d="M195 753q-54 0 -81.5 31.5t-32.5 79.5q0 10 10 10h32q8 0 10 -10q8 -26 23 -40.5t39 -14.5t39 14.5t22 40.5q3 10 11 10h32q10 0 10 -10q-5 -48 -32.5 -79.5t-81.5 -31.5z" />
      <glyph d="M195 731q-38 0 -62 24.5t-24 61.5q0 38 24 62t62 24q37 0 61.5 -24t24.5 -62q0 -37 -24.5 -61.5t-61.5 -24.5zM195 768q20 0 33.5 14t13.5 35t-13.5 35t-33.5 14t-33.5 -14t-13.5 -35t13.5 -35t33.5 -14z" />
      <glyph d="M227 763q-5 0 -6.5 2.5t1.5 7.5l68 105q3 5 6.5 7.5t9.5 2.5h49q5 0 6 -3t-1 -7l-80 -105q-8 -10 -18 -10h-35zM104 763q-5 0 -6.5 2.5t1.5 7.5l67 105q7 10 17 10h49q5 0 6 -3t-2 -7l-79 -105q-8 -10 -19 -10h-34z" />
      <glyph d="M163 777q-10 0 -10 10v72q0 10 10 10h63q10 0 10 -10v-72q0 -10 -10 -10h-63z" />
      <glyph d="M167 -208q-8 0 -8 10v135q0 10 10 10h53q10 0 10 -10v-49q0 -8 -1.5 -12.5t-5.5 -9.5l-46 -66q-4 -8 -12 -8z" />
      <glyph d="M169 572q-10 0 -10 10v49q0 8 1 12.5t5 9.5l46 66q5 8 12 8q9 0 9 -10v-135q0 -10 -10 -10h-53z" />
      <glyph d="M27 0q-11 0 -9 10l145 660q3 10 11 10h60q9 0 11 -10l143 -660q2 -10 -9 -10h-352zM290 76q5 0 4 6l-89 443h-3l-91 -443q-2 -6 5 -6h174z" />
      <glyph d="M249 0q-10 0 -10 10v53q0 7 10 14q15 10 23.5 22.5t13 38.5t6 73.5t1.5 128.5q0 71 -0.5 112t-1.5 63t-2.5 31.5t-4.5 17.5q-16 49 -73 49q-58 0 -74 -49q-3 -8 -4.5 -17.5t-2.5 -31.5t-1.5 -63t-0.5 -112q0 -81 1.5 -128.5t6 -73.5t13.5 -38.5t24 -22.5q9 -6 9 -14v-53
q0 -10 -10 -10h-121q-10 0 -10 10v56q0 10 10 10h40v1q-13 12 -21.5 26t-14 41t-7.5 73t-2 123q0 72 0.5 115.5t2 69t4 38.5t6.5 24q16 49 55 75.5t97 26.5q57 0 96 -26.5t55 -75.5q4 -11 6.5 -24t4 -38.5t2 -69t0.5 -115.5q0 -77 -2.5 -123t-7.5 -73t-13.5 -41t-21.5 -26
v-1h40q10 0 10 -10v-56q0 -10 -10 -10h-121z" />
      <glyph d="M269 0q-10 0 -10 10v38h-1q-9 -26 -29 -41.5t-51 -15.5q-13 0 -25 5t-18 14v-180q0 -10 -10 -10h-57q-10 0 -10 10v639q0 10 10 10h57q10 0 10 -10v-319q0 -87 62 -87q29 0 45.5 21t16.5 66v319q0 10 10 10h57q10 0 10 -10v-459q0 -10 -10 -10h-57z" />
      <glyph d="M86 170q-10 0 -10 10l-15 329q0 10 10 10h64q10 0 10 -10l-15 -329q0 -10 -10 -10h-34zM70 0q-10 0 -10 10v84q0 10 10 10h66q10 0 10 -10v-84q0 -10 -10 -10h-66z" />
      <glyph d="M173 -56q-10 0 -10 10v38q-62 4 -91.5 38t-34.5 96q0 11 8 12l49 8q9 1 11 -8q2 -38 15.5 -57t42.5 -23v178l-13 4q-57 17 -82 50t-25 95q0 66 31 102t89 40v27q0 10 10 10h15q10 0 10 -10v-27q54 -5 82 -37.5t34 -89.5q0 -11 -8 -12l-47 -7q-9 -2 -11 8q-4 32 -15.5 49
t-34.5 21v-159l10 -3q30 -9 51 -22t34 -31.5t19 -43.5t6 -58q0 -68 -27.5 -106.5t-92.5 -43.5v-38q0 -10 -10 -10h-15zM114 387q0 -29 10 -47t39 -29v149q-49 -7 -49 -73zM248 141q0 32 -11 51.5t-39 31.5v-165q26 5 38 23t12 59z" />
      <glyph d="M184 -9q-10 0 -7 10l211 516q4 10 13 10h38q10 0 7 -10l-211 -516q-3 -10 -12 -10h-39zM154 255q-31 0 -52 14t-29 38q-2 5 -3.5 11t-2 15t-1 22.5t-0.5 34.5t0.5 34.5t1 22.5t2 14.5t3.5 10.5q8 24 29 38.5t52 14.5q32 0 53 -14.5t29 -38.5q1 -5 2.5 -10.5t2.5 -14.5
t1.5 -22.5t0.5 -34.5t-0.5 -34.5t-1.5 -22.5t-2.5 -15t-2.5 -11q-8 -24 -29 -38t-53 -14zM154 305q21 0 29 19q1 3 1.5 6.5t1 10.5t0.5 18.5v30.5v29.5t-0.5 18.5t-1 10.5t-1.5 6.5q-8 19 -29 19q-22 0 -28 -19q-1 -3 -1.5 -6.5t-1 -10.5t-0.5 -18.5v-29.5v-30.5t0.5 -18.5
t1 -10.5t1.5 -6.5q6 -19 28 -19zM469 -6q-31 0 -52 14.5t-29 38.5q-2 5 -3.5 10.5t-2 14.5t-1 22.5t-0.5 34.5t0.5 34.5t1 22.5t2 14.5t3.5 10.5q8 24 29 38.5t52 14.5t52 -14.5t29 -38.5q2 -5 3.5 -10.5t2 -14.5t1 -22.5t0.5 -34.5t-0.5 -34.5t-1 -22.5t-2 -14.5
t-3.5 -10.5q-8 -24 -29 -38.5t-52 -14.5zM469 44q22 0 28 20q1 3 2 6.5t1.5 10t0.5 18v30.5q0 37 -1 48.5t-3 16.5q-6 20 -28 20t-28 -20q-2 -5 -3 -16.5t-1 -48.5v-30.5t0.5 -18t1.5 -10t2 -6.5q6 -20 28 -20z" />
      <glyph d="M398 -4q-24 0 -35.5 5.5t-22.5 21.5l-23 31q-27 -32 -58 -47.5t-69 -15.5q-60 0 -92.5 32.5t-32.5 85.5q0 18 4 35.5t14.5 37t28.5 42.5t46 52l-12 17q-29 41 -41 67t-12 54q0 49 33.5 81.5t88.5 32.5q54 0 87 -32.5t33 -81.5q0 -14 -4 -28t-13.5 -30t-26.5 -36.5
t-43 -47.5l72 -97l40 65q5 8 14 4l38 -25q9 -5 4 -14l-55 -87l26 -34q8 -12 14.5 -15.5t14.5 -3.5h3q10 0 10 -10v-49q0 -10 -10 -10h-21zM165 416q0 -16 8.5 -34t34.5 -55q17 18 28 30.5t17 22.5t8.5 18.5t2.5 17.5q0 21 -13 35.5t-36 14.5t-36.5 -14.5t-13.5 -35.5z
M197 60q20 0 39 11.5t41 38.5l-79 110q-35 -37 -48 -59t-13 -44q0 -26 15.5 -41.5t44.5 -15.5z" />
      <glyph d="M181 -9q-47 0 -79 21.5t-45 62.5q-3 7 -4.5 17t-2.5 29t-1.5 52t-0.5 87t0.5 86.5t1.5 52t2.5 29t4.5 17.5q13 40 45 61.5t79 21.5t79 -21.5t45 -61.5q3 -8 4.5 -17.5t2.5 -29t1.5 -52t0.5 -86.5t-0.5 -87t-1.5 -52t-2.5 -29t-4.5 -17q-13 -41 -45 -62.5t-79 -21.5z
M181 64q39 0 51 35q1 4 2 10t1.5 22t1 46.5t0.5 82.5t-0.5 82t-1 46t-1.5 22.5t-2 10.5q-12 35 -51 35t-51 -35q-1 -4 -2 -10.5t-1.5 -22.5t-1 -46t-0.5 -82t0.5 -82.5t1 -46.5t1.5 -22t2 -10q12 -35 51 -35z" />
      <glyph d="M168 0q-10 0 -10 10v419h-1l-78 -46q-11 -6 -11 7v60q0 8 7 14l79 50q8 5 16 5h56q10 0 10 -10v-499q0 -10 -10 -10h-58z" />
      <glyph d="M58 0q-9 0 -9 9v51q0 8 3 12l155 219q8 12 13.5 21.5t8.5 20t4.5 22.5t1.5 29q0 16 -1 24t-3 14q-12 34 -51 34q-40 0 -52 -34q-2 -6 -3 -14t-1 -28q0 -11 -12 -9l-54 5q-9 1 -9 12q0 21 1 33t5 24q13 40 45.5 61.5t79.5 21.5t79 -21t45 -62q5 -13 7 -26t2 -36
q0 -47 -11.5 -76t-33.5 -60l-126 -174v-1h161q10 0 10 -10v-52q0 -10 -10 -10h-245z" />
      <glyph d="M179 -9q-47 0 -79.5 21.5t-45.5 61.5q-4 12 -5 23.5t-1 25.5q0 10 9 12l54 5q12 2 12 -9q0 -13 1 -20t3 -14q12 -33 52 -33q39 0 51 33q2 7 3 16.5t1 36.5q0 24 -0.5 34t-2.5 15q-11 33 -56 33h-13q-10 0 -10 10v51q0 10 10 10h13q45 0 56 32q2 5 2.5 13t0.5 29t-1 30
t-3 15q-12 34 -51 34q-40 0 -52 -34q-4 -11 -4 -33q0 -12 -12 -10l-54 6q-9 1 -9 12q0 14 1 25t5 23q13 40 45.5 61.5t79.5 21.5t79 -21t45 -62q5 -13 7 -26t2 -42q0 -22 -1.5 -33.5t-4.5 -20.5q-6 -18 -18 -30.5t-29 -21.5v-2q17 -9 29 -21.5t18 -31.5q3 -9 4.5 -22
t1.5 -44q0 -32 -2 -47.5t-7 -28.5q-13 -41 -45 -62t-79 -21z" />
      <glyph d="M218 0q-10 0 -10 10v60q0 6 -6 6h-165q-10 0 -10 10v52q0 5 2 11l127 362q3 8 12 8h58q11 0 8 -11l-126 -358v-2h94q6 0 6 6v134q0 10 10 10h56q10 0 10 -10v-134q0 -6 5 -6h37q10 0 10 -10v-52q0 -10 -10 -10h-36q-6 0 -6 -6v-60q0 -10 -10 -10h-56z" />
      <glyph d="M181 -9q-47 0 -79.5 21t-45.5 62q-6 16 -6 39q0 11 10 12l53 5q11 1 13 -9q0 -9 1 -14t3 -10q11 -33 51 -33q39 0 51 33q2 6 3 18t1 50q0 37 -1.5 49.5t-3.5 18.5q-12 33 -50 33q-33 0 -49 -22q-5 -8 -16 -8h-47q-10 0 -10 10v263q0 10 10 10h235q10 0 10 -10v-52
q0 -10 -10 -10h-169q-6 0 -6 -6v-124h1q24 21 70 21q42 0 68.5 -19.5t37.5 -54.5q2 -6 3.5 -13t2.5 -18t1.5 -27.5t0.5 -40.5q0 -22 -0.5 -36.5t-1.5 -25t-3 -17.5t-4 -13q-13 -41 -45 -61.5t-79 -20.5z" />
      <glyph d="M181 -9q-47 0 -79 21t-46 62q-4 13 -6 28.5t-2 47.5q0 26 1.5 45.5t5 36.5t9 32.5t13.5 33.5l99 212q4 9 15 9h58q11 0 6 -10l-98 -206l2 -1q5 2 15 4.5t24 2.5q41 0 68.5 -20t39.5 -56q4 -13 6 -30.5t2 -52.5q0 -32 -2 -47.5t-6 -28.5q-14 -41 -46 -62t-79 -21zM181 64
q39 0 51 33q2 7 3.5 16.5t1.5 36.5q0 26 -1.5 36t-3.5 17q-12 33 -51 33t-51 -33q-2 -7 -3.5 -17t-1.5 -36q0 -27 1.5 -36.5t3.5 -16.5q12 -33 51 -33z" />
      <glyph d="M94 0q-5 0 -7 3t0 9l159 434v1h-115q-6 0 -6 -6v-46q0 -10 -10 -10h-52q-10 0 -10 10v114q0 10 10 10h250q10 0 10 -10v-54q0 -6 -3 -12l-156 -433q-3 -10 -14 -10h-56z" />
      <glyph d="M181 -9q-47 0 -79 21t-46 62q-4 13 -6 28.5t-2 47.5q0 29 2 42.5t5 24.5q6 17 16 31.5t26 22.5v2q-16 8 -26 22t-16 32q-3 11 -5 23t-2 32q0 23 2 36.5t6 26.5q14 41 46 62t79 21t79 -21t46 -62q4 -13 6 -26.5t2 -36.5q0 -20 -2 -32t-5 -23q-6 -18 -16 -32t-26 -22v-2
q16 -8 26 -22.5t16 -31.5q3 -11 5 -24.5t2 -42.5q0 -33 -2 -48t-6 -28q-14 -41 -46 -62t-79 -21zM181 308q39 0 51 34q2 6 3.5 14.5t1.5 25.5t-1.5 25.5t-3.5 14.5q-12 34 -51 34t-51 -34q-2 -6 -3.5 -14.5t-1.5 -25.5t1.5 -25.5t3.5 -14.5q12 -34 51 -34zM181 64
q39 0 51 33q2 7 3.5 16.5t1.5 36.5q0 26 -1.5 36t-3.5 16q-12 34 -51 34t-51 -34q-2 -6 -3.5 -16t-1.5 -36q0 -27 1.5 -36.5t3.5 -16.5q12 -33 51 -33z" />
      <glyph d="M113 0q-12 0 -6 11l98 205l-2 1q-5 -2 -15 -4t-24 -2q-41 0 -68.5 19.5t-39.5 55.5q-4 14 -6 31t-2 52q0 32 2 47.5t6 28.5q14 41 46 62t79 21t79 -21t46 -62q4 -13 6 -28.5t2 -47.5q0 -26 -1.5 -45.5t-5 -36.5t-9 -32.5t-13.5 -33.5l-99 -212q-5 -9 -15 -9h-58zM181 283
q39 0 51 34q2 6 3.5 16t1.5 36q0 27 -1.5 37t-3.5 16q-12 34 -51 34t-51 -34q-2 -6 -3.5 -16t-1.5 -37q0 -26 1.5 -36t3.5 -16q12 -34 51 -34z" />
      <glyph d="M125 156q-10 0 -10 10v34q0 18 3 29.5t13 25.5l47 65q16 23 22 37.5t6 36.5q0 11 -1 18t-3 12q-5 14 -17.5 23t-32.5 9q-19 0 -31.5 -9t-17.5 -23q-2 -6 -3 -14t-2 -27q0 -11 -10 -9l-56 7q-9 1 -9 10q0 23 2 36.5t6 24.5q13 37 45 56.5t77 19.5q46 0 77.5 -20t44.5 -58
q5 -12 6.5 -25t1.5 -27q0 -30 -7.5 -52t-22.5 -42l-46 -64q-8 -11 -10.5 -21t-2.5 -24v-29q0 -10 -10 -10h-59zM122 0q-10 0 -10 10v84q0 10 10 10h65q10 0 10 -10v-84q0 -10 -10 -10h-65z" />
      <glyph d="M290 0q-8 0 -11 10l-24 99h-140l-24 -99q-3 -10 -11 -10h-57q-11 0 -8 10l130 499q3 10 12 10h57q9 0 12 -10l129 -499q3 -10 -8 -10h-57zM132 180h106l-51 212h-3z" />
      <glyph d="M69 0q-10 0 -10 10v499q0 10 10 10h120q83 0 118 -31t35 -101q0 -51 -17 -77.5t-52 -38.5v-1q36 -8 56 -37t20 -84q0 -82 -40.5 -115.5t-128.5 -33.5h-111zM183 301q43 0 61.5 16t18.5 57q0 42 -17 58t-63 16h-41q-6 0 -6 -6v-135q0 -6 6 -6h41zM182 71q50 0 69.5 17
t19.5 63q0 45 -19.5 62.5t-66.5 17.5h-43q-6 0 -6 -6v-148q0 -6 6 -6h40z" />
      <glyph d="M192 -9q-51 0 -85.5 24.5t-48.5 69.5q-3 9 -5 19t-3.5 28.5t-2 48.5t-0.5 79q0 48 0.5 78t2 48.5t3.5 28.5t5 19q14 45 48.5 69.5t85.5 24.5q58 0 96 -32t46 -94q1 -9 -8 -12l-53 -9q-10 -2 -12 9q-12 66 -68 66q-48 0 -61 -45q-2 -6 -3.5 -13t-2.5 -23t-1.5 -43
t-0.5 -72t0.5 -72.5t1.5 -43.5t2.5 -23t3.5 -13q13 -44 61 -44q56 0 68 66q2 10 12 8l53 -9q9 -3 8 -12q-8 -62 -46 -94t-96 -32z" />
      <glyph d="M69 0q-10 0 -10 10v499q0 10 10 10h132q60 0 94 -22t49 -69q4 -11 6.5 -24t4 -32t2.5 -46t1 -66t-1 -66t-2.5 -46.5t-4 -32.5t-6.5 -23q-16 -47 -49.5 -69.5t-93.5 -22.5h-132zM193 72q62 0 78 51q3 7 4.5 16.5t2.5 24.5t1.5 38t0.5 58q0 34 -0.5 57t-1.5 38.5t-2.5 24.5
t-4.5 17q-16 50 -78 50h-51q-6 0 -6 -6v-363q0 -6 6 -6h51z" />
      <glyph d="M69 0q-10 0 -10 10v499q0 10 10 10h236q10 0 10 -10v-52q0 -10 -10 -10h-163q-6 0 -6 -6v-137q0 -6 6 -6h141q10 0 10 -10v-52q0 -10 -10 -10h-141q-6 0 -6 -6v-142q0 -6 6 -6h163q10 0 10 -10v-52q0 -10 -10 -10h-236z" />
      <glyph d="M69 0q-10 0 -10 10v499q0 10 10 10h236q10 0 10 -10v-52q0 -10 -10 -10h-163q-6 0 -6 -6v-138q0 -6 6 -6h141q10 0 10 -10v-52q0 -10 -10 -10h-141q-6 0 -6 -6v-209q0 -10 -10 -10h-57z" />
      <glyph d="M196 -9q-52 0 -88 24.5t-50 69.5q-3 9 -5 19t-3.5 28.5t-2 48.5t-0.5 79q0 48 0.5 78t2 48.5t3.5 29t5 19.5q14 44 50 68.5t88 24.5q61 0 99.5 -32.5t46.5 -92.5q2 -9 -7 -11l-53 -9q-10 -3 -12 8q-12 65 -73 65q-51 0 -66 -45q-2 -5 -3 -12.5t-2 -23.5t-1.5 -43
t-0.5 -72t0.5 -72.5t1.5 -43.5t2 -23t3 -13q15 -44 67 -44t67 44q2 6 3.5 12.5t2 18t1 29.5t0.5 46q0 6 -6 6h-62q-10 0 -10 10v49q0 10 10 10h131q10 0 10 -10v-23q0 -47 -0.5 -76.5t-2 -47.5t-3.5 -28t-5 -19q-14 -45 -50 -69.5t-88 -24.5z" />
      <glyph d="M287 0q-10 0 -10 10v213q0 6 -6 6h-129q-6 0 -6 -6v-213q0 -10 -10 -10h-57q-10 0 -10 10v499q0 10 10 10h57q10 0 10 -10v-202q0 -6 6 -6h129q6 0 6 6v202q0 10 10 10h57q10 0 10 -10v-499q0 -10 -10 -10h-57z" />
      <glyph d="M69 0q-10 0 -10 10v499q0 10 10 10h57q10 0 10 -10v-499q0 -10 -10 -10h-57z" />
      <glyph d="M121 -9q-32 0 -57 10.5t-39 25.5q-6 7 1 14l39 37q7 7 15 0q8 -5 19 -9.5t25 -4.5q28 0 44.5 16t16.5 53v376q0 10 10 10h57q10 0 10 -10v-373q0 -74 -37.5 -109.5t-103.5 -35.5z" />
      <glyph d="M307 0q-8 0 -11 7l-108 232l-52 -85v-144q0 -10 -10 -10h-57q-10 0 -10 10v499q0 10 10 10h57q10 0 10 -10v-235l140 238q4 7 13 7h61q10 0 5 -9l-122 -198l142 -302q2 -4 0.5 -7t-5.5 -3h-63z" />
      <glyph d="M69 0q-10 0 -10 10v499q0 10 10 10h57q10 0 10 -10v-431q0 -6 6 -6h159q10 0 10 -10v-52q0 -10 -10 -10h-232z" />
      <glyph d="M388 0q-10 0 -10 10v347h-4l-92 -255q-3 -10 -12 -10h-32q-9 0 -12 10l-92 255h-4v-347q0 -10 -10 -10h-51q-10 0 -10 10v499q0 10 10 10h58q12 0 15 -10l111 -307h4l109 307q4 10 16 10h57q10 0 10 -10v-499q0 -10 -10 -10h-51z" />
      <glyph d="M289 0q-12 0 -16 10l-141 377h-3v-377q0 -10 -10 -10h-50q-10 0 -10 10v499q0 10 10 10h69q13 0 16 -10l137 -374h4v374q0 10 10 10h50q10 0 10 -10v-499q0 -10 -10 -10h-66z" />
      <glyph d="M196 -9q-52 0 -88 24.5t-50 69.5q-3 9 -5 19t-3.5 28.5t-2 48.5t-0.5 79q0 48 0.5 78t2 48.5t3.5 29t5 19.5q14 44 50 68.5t88 24.5t88 -24.5t50 -68.5q3 -9 5 -19.5t3.5 -29t2 -48.5t0.5 -78q0 -49 -0.5 -79t-2 -48.5t-3.5 -28.5t-5 -19q-14 -45 -50 -69.5t-88 -24.5z
M196 64q50 0 65 44q2 6 3.5 13t2 23t1 43.5t0.5 72.5t-0.5 72t-1 43t-2 23.5t-3.5 12.5q-15 45 -65 45t-65 -45q-2 -5 -3 -12.5t-2 -23.5t-1.5 -43t-0.5 -72t0.5 -72.5t1.5 -43.5t2 -23t3 -13q15 -44 65 -44z" />
      <glyph d="M69 0q-10 0 -10 10v499q0 10 10 10h122q75 0 116.5 -38t41.5 -119t-41.5 -119.5t-116.5 -38.5h-49q-6 0 -6 -6v-188q0 -10 -10 -10h-57zM184 275q47 0 67.5 19t20.5 68q0 48 -20.5 67t-67.5 19h-42q-6 0 -6 -6v-161q0 -6 6 -6h42z" />
      <glyph d="M332 -19q-7 -7 -14 1l-33 39q-38 -30 -89 -30q-52 0 -88 24.5t-50 68.5q-3 9 -5 19t-3.5 28.5t-2 49t-0.5 79.5t0.5 79t2 48.5t3.5 29t5 19.5q14 44 50 68.5t88 24.5t88 -24.5t50 -68.5q3 -9 5 -19.5t3.5 -29t2 -48.5t0.5 -79v-55t-2.5 -56t-7.5 -50t-14 -37l39 -39
q6 -8 0 -14zM196 60q16 0 26 2.5t18 7.5l-42 44q-3 3 -3.5 7t3.5 7l24 24q8 6 14 -1l28 -32h2q2 13 2.5 45.5t0.5 95.5q0 46 -0.5 73.5t-1 43.5t-2 23.5t-3.5 12.5q-14 44 -66 44q-24 0 -41.5 -11t-24.5 -33q-2 -5 -3.5 -12.5t-2 -23.5t-1 -43.5t-0.5 -73.5t0.5 -74t1 -44
t2 -23t3.5 -12q7 -23 24.5 -35t41.5 -12z" />
      <glyph d="M292 0q-10 0 -13 9l-73 203h-16h-48q-6 0 -6 -6v-196q0 -10 -10 -10h-57q-10 0 -10 10v499q0 10 10 10h121q76 0 117 -38t41 -115q0 -51 -18.5 -85t-53.5 -51l83 -220q3 -10 -7 -10h-60zM183 283q48 0 68 19t20 64q0 44 -20 63t-68 19h-41q-6 0 -6 -6v-153q0 -6 6 -6h41z
" />
      <glyph d="M186 -9q-72 0 -108.5 35t-41.5 101q0 10 8 11l55 9q9 2 11 -8q9 -78 74 -78q35 0 52 18.5t17 63.5q0 35 -14 53.5t-52 31.5l-37 12q-30 9 -50 21.5t-32.5 29.5t-18 40t-5.5 54q0 68 37 105.5t101 37.5q68 0 102.5 -33.5t40.5 -93.5q2 -11 -7 -12l-53 -8q-11 -2 -11 9
q-8 68 -69 68q-65 0 -65 -72q0 -30 12.5 -48t49.5 -30l37 -12q61 -19 85.5 -52.5t24.5 -99.5q0 -74 -35.5 -113.5t-107.5 -39.5z" />
      <glyph d="M144 0q-10 0 -10 10v431q0 6 -6 6h-101q-10 0 -10 10v52q0 10 10 10h291q10 0 10 -10v-52q0 -10 -10 -10h-101q-6 0 -6 -6v-431q0 -10 -10 -10h-57z" />
      <glyph d="M205 -9q-68 0 -107.5 39t-39.5 114v365q0 10 10 10h57q10 0 10 -10v-364q0 -41 18.5 -61t51.5 -20q32 0 50.5 20t18.5 61v364q0 10 10 10h57q10 0 10 -10v-365q0 -75 -39.5 -114t-106.5 -39z" />
      <glyph d="M154 0q-8 0 -10 10l-123 499q-2 10 9 10h57q10 0 11 -10l82 -369h3l80 369q1 10 11 10h56q10 0 8 -10l-122 -499q-2 -10 -10 -10h-52z" />
      <glyph d="M348 0q-8 0 -10 10l-72 355h-2l-74 -355q-2 -10 -10 -10h-50q-8 0 -10 10l-97 499q-2 10 8 10h56q10 0 11 -10l60 -359h1l73 359q1 10 11 10h42q10 0 11 -10l73 -359h2l59 359q1 10 11 10h56q10 0 8 -10l-98 -499q-2 -10 -10 -10h-49z" />
      <glyph d="M280 0q-9 0 -13 10l-81 176h-2l-80 -176q-4 -10 -14 -10h-60q-5 0 -6.5 3t0.5 8l120 260l-109 238q-5 10 7 10h59q9 0 13 -9l71 -158h2l71 158q4 9 13 9h57q12 0 7 -10l-109 -238l120 -260q5 -11 -6 -11h-60z" />
      <glyph d="M143 0q-10 0 -10 10v205l-119 294q-3 10 7 10h60q8 0 11 -10l79 -208h3l77 208q3 10 12 10h58q10 0 7 -10l-118 -294v-205q0 -10 -10 -10h-57z" />
      <glyph d="M43 0q-10 0 -10 10v52q0 7 3 13l186 370v2h-170q-10 0 -10 10v52q0 10 10 10h241q10 0 10 -10v-51q0 -7 -3 -14l-185 -370v-2h180q10 0 10 -10v-52q0 -10 -10 -10h-252z" />
      <glyph d="M165 597q-10 0 -17 10l-87 123q-2 4 -1 7t6 3h59q10 0 16 -10l69 -123q5 -10 -5 -10h-40zM290 0q-8 0 -11 10l-24 99h-140l-24 -99q-3 -10 -11 -10h-57q-11 0 -8 10l130 499q3 10 12 10h57q9 0 12 -10l129 -499q3 -10 -8 -10h-57zM132 180h106l-51 212h-3z" />
      <glyph d="M290 0q-8 0 -11 10l-24 99h-140l-24 -99q-3 -10 -11 -10h-57q-11 0 -8 10l130 499q3 10 12 10h57q9 0 12 -10l129 -499q3 -10 -8 -10h-57zM132 180h106l-51 212h-3zM164 597q-10 0 -5 10l69 123q6 10 16 10h59q5 0 6 -3t-1 -7l-87 -123q-5 -6 -8 -8t-9 -2h-40z" />
      <glyph d="M290 0q-8 0 -11 10l-24 99h-140l-24 -99q-3 -10 -11 -10h-57q-11 0 -8 10l130 499q3 10 12 10h57q9 0 12 -10l129 -499q3 -10 -8 -10h-57zM132 180h106l-51 212h-3zM257 597q-10 0 -17 10l-52 71h-2l-52 -71q-7 -10 -17 -10h-42q-5 0 -6.5 2.5t1.5 7.5l82 123q6 10 17 10
h36q11 0 17 -10l82 -123q3 -5 1.5 -7.5t-6.5 -2.5h-42z" />
      <glyph d="M228 621q-15 0 -26.5 5.5t-22.5 13.5t-18.5 12t-16.5 4q-14 0 -23.5 -7.5t-20.5 -19.5q-4 -5 -8 -3.5t-4 6.5v47q0 8 9 18t20.5 16.5t27.5 6.5q15 0 26 -5.5t22 -13.5t18.5 -12t17.5 -4q14 0 23.5 7.5t20.5 19.5q3 5 7 3.5t4 -6.5v-47q0 -5 -1.5 -8.5t-6.5 -9.5
q-9 -10 -20.5 -16.5t-27.5 -6.5zM290 0q-8 0 -11 10l-24 99h-140l-24 -99q-3 -10 -11 -10h-57q-11 0 -8 10l130 499q3 10 12 10h57q9 0 12 -10l129 -499q3 -10 -8 -10h-57zM132 180h106l-51 212h-3z" />
      <glyph d="M290 0q-8 0 -11 10l-24 99h-140l-24 -99q-3 -10 -11 -10h-57q-11 0 -8 10l130 499q3 10 12 10h57q9 0 12 -10l129 -499q3 -10 -8 -10h-57zM132 180h106l-51 212h-3zM234 628q-10 0 -10 10v72q0 10 10 10h51q10 0 10 -10v-72q0 -10 -10 -10h-51zM89 628q-10 0 -10 10v72
q0 10 10 10h51q10 0 10 -10v-72q0 -10 -10 -10h-51z" />
      <glyph d="M290 0q-8 0 -11 10l-24 99h-140l-24 -99q-3 -10 -11 -10h-57q-11 0 -8 10l130 499q3 10 12 10h57q9 0 12 -10l129 -499q3 -10 -8 -10h-57zM132 180h106l-51 212h-3zM90 643q-10 0 -10 10v43q0 10 10 10h194q10 0 10 -10v-43q0 -10 -10 -10h-194z" />
      <glyph d="M187 603q-54 0 -81.5 31.5t-32.5 79.5q-2 10 9 10h32q8 0 11 -10q7 -25 22.5 -39t39.5 -14t39.5 14t22.5 39q3 10 10 10h33q11 0 9 -10q-5 -48 -32.5 -79.5t-81.5 -31.5zM290 0q-8 0 -11 10l-24 99h-140l-24 -99q-3 -10 -11 -10h-57q-11 0 -8 10l130 499q3 10 12 10h57
q9 0 12 -10l129 -499q3 -10 -8 -10h-57zM132 180h106l-51 212h-3z" />
      <glyph d="M187 586q-38 0 -62 24.5t-24 61.5q0 38 24 62.5t62 24.5q37 0 61.5 -24.5t24.5 -62.5q0 -37 -24.5 -61.5t-61.5 -24.5zM187 623q21 0 34 14t13 35q0 22 -13 36t-34 14t-34.5 -14t-13.5 -36q0 -21 13.5 -35t34.5 -14zM290 0q-8 0 -11 10l-24 99h-140l-24 -99
q-3 -10 -11 -10h-57q-11 0 -8 10l130 499q3 10 12 10h57q9 0 12 -10l129 -499q3 -10 -8 -10h-57zM132 180h106l-51 212h-3z" />
      <glyph d="M161 701q-5 0 -6.5 3t1.5 7l76 106q4 5 7 7.5t9 2.5h59q5 0 6 -3t-2 -7l-93 -106q-10 -10 -18 -10h-39zM290 0q-8 0 -11 10l-24 99h-140l-24 -99q-3 -10 -11 -10h-57q-11 0 -8 10l126 483q-20 11 -31 30.5t-11 45.5q0 37 24.5 61.5t61.5 24.5q38 0 62 -24.5t24 -61.5
q0 -25 -11 -45t-30 -31l125 -483q3 -10 -8 -10h-57zM185 519q21 0 34.5 14t13.5 36q0 21 -13.5 35t-34.5 14t-34 -14t-13 -35q0 -22 13 -36t34 -14zM132 180h106l-51 212h-3z" />
      <glyph d="M295 -181q-34 0 -55 19t-21 54q0 30 16.5 55.5t46.5 54.5l-3 8l-24 99h-140l-24 -99q-2 -10 -10 -10h-58q-11 0 -8 10l130 499q3 10 12 10h57q9 0 12 -10l129 -499q1 -7 -4 -10q-67 -58 -67 -96q0 -13 6 -19.5t15 -6.5q12 0 21 6q9 5 12 -3l15 -34q3 -8 -5 -13
q-9 -6 -23 -10.5t-30 -4.5zM187 392h-3l-52 -212h106z" />
      <glyph d="M284 0q-10 0 -10 10v93q0 6 -6 6h-133l-40 -99q-5 -10 -13 -10h-60q-10 0 -7 10l205 499q4 10 13 10h287q10 0 10 -10v-52q0 -10 -10 -10h-163q-6 0 -6 -6v-137q0 -6 6 -6h141q10 0 10 -10v-52q0 -10 -10 -10h-141q-6 0 -6 -6v-142q0 -6 6 -6h163q10 0 10 -10v-52
q0 -10 -10 -10h-236zM163 180h105q6 0 6 6v261h-3z" />
      </font>
</defs>
</svg>
